<?xml version="1.0" standalone="no"?>
<!DOCTYPE svg PUBLIC "-//W3C//DTD SVG 1.1//EN" "http://www.w3.org/Graphics/SVG/1.1/DTD/svg11.dtd" >
<svg xmlns="http://www.w3.org/2000/svg">
<metadata>Generated by IcoMoon</metadata>
<defs>
<font id="sallaicons" horiz-adv-x="1024">
<font-face units-per-em="1024" ascent="960" descent="-64" />
<missing-glyph horiz-adv-x="1024" />
<glyph unicode="&#x20;" horiz-adv-x="512" d="" />
<glyph unicode="&#xe900;" glyph-name="cart2" d="M219.051 789.333l-60.971 170.667h-115.413c-23.564 0-42.667-19.103-42.667-42.667s19.103-42.667 42.667-42.667v0h55.253l183.040-512.384c18.204-49.921 65.257-84.926 120.488-84.949h388.27c0.031 0 0.067 0 0.103 0 58.389 0 107.646 39.095 123.024 92.536l0.223 0.904 101.163 418.56zM830.72 393.088c-5.331-17.728-21.508-30.422-40.649-30.422-0.079 0-0.159 0-0.238 0.001h-388.255c-18.399 0.010-34.074 11.664-40.054 27.992l-0.095 0.296-111.915 313.045h656.256zM426.667 192c-70.692 0-128-57.308-128-128s57.308-128 128-128c70.692 0 128 57.308 128 128v0c0 70.692-57.308 128-128 128v0zM426.667 21.333c-23.564 0-42.667 19.103-42.667 42.667s19.103 42.667 42.667 42.667c23.564 0 42.667-19.103 42.667-42.667v0c0-23.564-19.103-42.667-42.667-42.667v0zM768 192c-70.692 0-128-57.308-128-128s57.308-128 128-128c70.692 0 128 57.308 128 128v0c0 70.692-57.308 128-128 128v0zM768 21.333c-23.564 0-42.667 19.103-42.667 42.667s19.103 42.667 42.667 42.667c23.564 0 42.667-19.103 42.667-42.667v0c0-23.564-19.103-42.667-42.667-42.667v0z" />
<glyph unicode="&#xe901;" glyph-name="paper-plane-o" horiz-adv-x="1025" d="M1008 944.571c12-8.571 17.714-22.286 15.429-36.571l-146.286-877.714c-1.714-10.857-8.571-20-18.286-25.714-5.143-2.857-11.429-4.571-17.714-4.571-4.571 0-9.143 1.143-13.714 2.857l-301.143 122.857-170.286-186.857c-6.857-8-16.571-12-26.857-12-4.571 0-9.143 0.571-13.143 2.286-14.286 5.714-23.429 19.429-23.429 34.286v258.286l-269.714 110.286c-13.143 5.143-21.714 17.143-22.857 31.429-1.143 13.714 6.286 26.857 18.286 33.714l950.857 548.571c12 7.429 27.429 6.857 38.857-1.143zM812.571 88l126.286 756-819.429-472.571 192-78.286 493.143 365.143-273.143-455.429z" />
<glyph unicode="&#xe902;" glyph-name="check-circle2" d="M938.667 507.734c-25.6 0-42.667-17.067-42.667-42.667v-38.4c0-213.333-170.667-384-384-384 0 0 0 0 0 0-213.333 0-384 170.667-384 384s170.667 384 384 384c0 0 0 0 0 0 55.467 0 106.667-12.8 157.867-34.133 21.333-8.533 46.933 0 55.467 21.333s0 46.933-21.333 55.467c-59.733 25.6-123.733 42.667-192 42.667 0 0 0 0 0 0-260.267 0-469.333-209.067-469.333-469.333s209.067-469.333 469.333-469.333c0 0 0 0 0 0 260.267 0 469.333 209.067 469.333 469.333v38.4c0 25.6-17.067 42.667-42.667 42.667zM413.867 499.2c-17.067 17.067-42.667 17.067-59.733 0s-17.067-42.667 0-59.733l128-128c8.533-8.533 17.067-12.8 29.867-12.8s21.333 4.267 29.867 12.8l426.667 426.667c17.067 17.067 17.067 42.667 0 59.733s-42.667 17.067-59.733 0l-396.8-396.8-98.133 98.133z" />
<glyph unicode="&#xe903;" glyph-name="facebook2" d="M768 640c25.6 0 42.667 17.067 42.667 42.667v170.667c0 25.6-17.067 42.667-42.667 42.667h-128c-140.8 0-256-115.2-256-256v-85.333h-85.333c-25.6 0-42.667-17.067-42.667-42.667v-170.667c0-25.6 17.067-42.667 42.667-42.667h85.333v-298.667c0-25.6 17.067-42.667 42.667-42.667h170.667c25.6 0 42.667 17.067 42.667 42.667v298.667h85.333c21.333 0 38.4 12.8 42.667 34.133l42.667 170.667c4.267 12.8 0 25.6-8.533 38.4s-21.333 12.8-34.133 12.8h-128v85.333h128zM597.333 469.334h115.2l-21.333-85.333h-93.867c-25.6 0-42.667-17.067-42.667-42.667v-298.667h-85.333v298.667c0 25.6-17.067 42.667-42.667 42.667h-85.333v85.333h85.333c25.6 0 42.667 17.067 42.667 42.667v128c0 93.867 76.8 170.667 170.667 170.667h85.333v-85.333h-85.333c-46.933 0-85.333-38.4-85.333-85.333v-128c0-25.6 17.067-42.667 42.667-42.667z" />
<glyph unicode="&#xe904;" glyph-name="instagram2" d="M725.333 896h-426.667c-140.8 0-256-115.2-256-256v-426.667c0-140.8 115.2-256 256-256h426.667c140.8 0 256 115.2 256 256v426.667c0 140.8-115.2 256-256 256zM896 213.334c0-93.867-76.8-170.667-170.667-170.667h-426.667c-93.867 0-170.667 76.8-170.667 170.667v426.667c0 93.867 76.8 170.667 170.667 170.667h426.667c93.867 0 170.667-76.8 170.667-170.667v-426.667zM546.133 640c-21.333 4.267-42.667 4.267-64 0-115.2-17.067-196.267-128-179.2-243.2 8.533-55.467 38.4-106.667 85.333-140.8 38.4-25.6 81.067-42.667 128-42.667 8.533 0 21.333 0 29.867 4.267 55.467 8.533 106.667 38.4 140.8 85.333s46.933 102.4 38.4 157.867c-12.8 93.867-85.333 166.4-179.2 179.2zM618.667 354.134c-21.333-25.6-51.2-46.933-85.333-51.2-68.267-8.533-136.533 38.4-145.067 106.667-12.8 68.267 38.4 136.533 106.667 145.067 4.267 0 12.8 0 17.067 0s12.8 0 17.067 0c55.467-8.533 98.133-51.2 106.667-106.667 8.533-34.133 0-68.267-17.067-93.867zM716.8 691.2c-8.533-8.533-12.8-17.067-12.8-29.867s4.267-21.333 12.8-29.867c8.533-8.533 21.333-12.8 29.867-12.8 12.8 0 21.333 4.267 29.867 12.8s12.8 21.333 12.8 29.867c0 12.8-4.267 21.333-12.8 29.867-17.067 17.067-42.667 17.067-59.733 0z" />
<glyph unicode="&#xe905;" glyph-name="shopping-bag2" d="M934.4 699.734c0 0 0 4.267-4.267 4.267 0 0 0 4.267-4.267 4.267l-128 170.667c-4.267 12.8-17.067 17.067-29.867 17.067h-512c-12.8 0-25.6-4.267-34.133-17.067l-128-170.667c0 0 0-4.267-4.267-4.267 0 0 0-4.267-4.267-4.267 0-8.533 0-12.8 0-17.067v-597.333c0-72.533 55.467-128 128-128h597.333c72.533 0 128 55.467 128 128v597.333c0 4.267 0 8.533-4.267 17.067zM277.333 810.667h469.333l64-85.333h-597.333l64 85.333zM810.667 42.667h-597.333c-25.6 0-42.667 17.067-42.667 42.667v554.667h682.667v-554.667c0-25.6-17.067-42.667-42.667-42.667zM682.667 554.667c-25.6 0-42.667-17.067-42.667-42.667 0-72.533-55.467-128-128-128s-128 55.467-128 128c0 25.6-17.067 42.667-42.667 42.667s-42.667-17.067-42.667-42.667c0-119.467 93.867-213.333 213.333-213.333s213.333 93.867 213.333 213.333c0 25.6-17.067 42.667-42.667 42.667z" />
<glyph unicode="&#xe906;" glyph-name="trash-2" d="M896 725.334h-170.667v42.667c0 72.533-55.467 128-128 128h-170.667c-72.533 0-128-55.467-128-128v-42.667h-170.667c-25.6 0-42.667-17.067-42.667-42.667s17.067-42.667 42.667-42.667h42.667v-554.667c0-72.533 55.467-128 128-128h426.667c72.533 0 128 55.467 128 128v554.667h42.667c25.6 0 42.667 17.067 42.667 42.667s-17.067 42.667-42.667 42.667zM384 768c0 25.6 17.067 42.667 42.667 42.667h170.667c25.6 0 42.667-17.067 42.667-42.667v-42.667h-256v42.667zM768 85.334c0-25.6-17.067-42.667-42.667-42.667h-426.667c-25.6 0-42.667 17.067-42.667 42.667v554.667h512v-554.667zM426.667 512c-25.6 0-42.667-17.067-42.667-42.667v-256c0-25.6 17.067-42.667 42.667-42.667s42.667 17.067 42.667 42.667v256c0 25.6-17.067 42.667-42.667 42.667zM597.333 512c-25.6 0-42.667-17.067-42.667-42.667v-256c0-25.6 17.067-42.667 42.667-42.667s42.667 17.067 42.667 42.667v256c0 25.6-17.067 42.667-42.667 42.667z" />
<glyph unicode="&#xe907;" glyph-name="twitter2" d="M1006.933 844.8c-12.8 8.533-34.133 8.533-46.933 0-29.867-21.333-64-38.4-98.133-51.2-85.333 76.8-217.6 81.067-307.2 4.267-55.467-46.933-85.333-110.933-85.333-179.2-123.733 8.533-234.667 72.533-307.2 174.933-8.533 12.8-21.333 17.067-38.4 17.067s-29.867-12.8-34.133-25.6c-4.267-4.267-46.933-106.667-42.667-230.4 4.267-106.667 46.933-243.2 204.8-341.333-64-29.867-136.533-42.667-209.067-42.667-17.067 0-38.4-12.8-42.667-29.867s4.267-38.4 21.333-46.933c106.667-59.733 221.867-89.6 328.533-89.6s209.067 25.6 302.933 81.067c183.467 102.4 285.867 298.667 285.867 533.333 0 8.533 0 12.8 0 21.333 42.667 46.933 72.533 102.4 85.333 162.133 4.267 17.067-4.267 34.133-17.067 42.667zM861.867 682.667c-8.533-8.533-12.8-25.6-12.8-38.4 4.267-8.533 4.267-17.067 4.267-25.6 0-204.8-89.6-371.2-243.2-460.8-119.467-68.267-260.267-85.333-401.067-51.2 55.467 17.067 106.667 38.4 153.6 72.533 17.067 8.533 21.333 21.333 21.333 38.4s-12.8 29.867-25.6 34.133c-247.467 110.933-238.933 320-213.333 426.667 93.867-93.867 226.133-149.333 366.933-145.067 21.333 0 42.667 21.333 42.667 42.667v42.667c0 42.667 17.067 85.333 51.2 115.2 59.733 55.467 157.867 46.933 209.067-12.8 12.8-12.8 29.867-17.067 42.667-12.8 8.533 4.267 21.333 4.267 29.867 8.533-8.533-12.8-17.067-21.333-25.6-34.133z" />
<glyph unicode="&#xe908;" glyph-name="activity" d="M981.333 405.333h-213.333c-16.171 0-30.933-9.131-38.187-23.595l-103.253-206.549-223.403 670.293c-5.845 17.451-22.144 29.184-40.491 29.184h-0.299c-18.475-0.128-34.773-12.117-40.363-29.739l-139.861-439.595h-139.477c-23.552 0-42.667-19.115-42.667-42.667s19.115-42.667 42.667-42.667h170.667c18.603 0 35.029 12.032 40.661 29.739l109.611 344.533 214.571-643.755c5.461-16.341 20.267-27.819 37.461-29.056 1.024-0.085 2.048-0.128 3.029-0.128 16.043 0 30.891 9.045 38.144 23.595l137.557 275.072h186.965c23.552 0 42.667 19.115 42.667 42.667s-19.115 42.667-42.667 42.667z" />
<glyph unicode="&#xe909;" glyph-name="add-circle" d="M682.667 490.667h-128v128c0 23.552-19.115 42.667-42.667 42.667s-42.667-19.115-42.667-42.667v-128h-128c-23.552 0-42.667-19.115-42.667-42.667s19.115-42.667 42.667-42.667h128v-128c0-23.552 19.115-42.667 42.667-42.667s42.667 19.115 42.667 42.667v128h128c23.552 0 42.667 19.115 42.667 42.667s-19.115 42.667-42.667 42.667zM874.027 810.027c-199.595 199.595-524.459 199.637-724.096 0-199.595-199.637-199.595-524.459 0-724.096 99.797-99.797 230.955-149.717 362.027-149.717s262.229 49.877 362.027 149.717c199.68 199.637 199.68 524.501 0.043 724.096zM813.696 146.304c-166.357-166.315-437.077-166.357-603.435 0-166.315 166.357-166.315 437.077 0 603.435 83.2 83.157 192.469 124.715 301.739 124.715s218.539-41.6 301.696-124.757c166.357-166.357 166.357-437.035 0-603.392z" />
<glyph unicode="&#xe90a;" glyph-name="add-square" d="M768 917.333h-512c-117.632 0-213.333-95.701-213.333-213.333v-512c0-117.632 95.701-213.333 213.333-213.333h512c117.632 0 213.333 95.701 213.333 213.333v512c0 117.632-95.701 213.333-213.333 213.333zM896 192c0-70.571-57.429-128-128-128h-512c-70.571 0-128 57.429-128 128v512c0 70.571 57.429 128 128 128h512c70.571 0 128-57.429 128-128zM682.667 490.667h-128v128c0 23.552-19.115 42.667-42.667 42.667s-42.667-19.115-42.667-42.667v-128h-128c-23.552 0-42.667-19.115-42.667-42.667s19.115-42.667 42.667-42.667h128v-128c0-23.552 19.115-42.667 42.667-42.667s42.667 19.115 42.667 42.667v128h128c23.552 0 42.667 19.115 42.667 42.667s-19.115 42.667-42.667 42.667z" />
<glyph unicode="&#xe90b;" glyph-name="add" d="M853.333 490.667h-298.667v298.667c0 23.552-19.115 42.667-42.667 42.667s-42.667-19.115-42.667-42.667v-298.667h-298.667c-23.552 0-42.667-19.115-42.667-42.667s19.115-42.667 42.667-42.667h298.667v-298.667c0-23.552 19.115-42.667 42.667-42.667s42.667 19.115 42.667 42.667v298.667h298.667c23.552 0 42.667 19.115 42.667 42.667s-19.115 42.667-42.667 42.667z" />
<glyph unicode="&#xe90c;" glyph-name="address-book" d="M1024 789.333c0 70.571-57.429 128-128 128h-682.667c-70.571 0-128-57.429-128-128v-42.667h-42.667c-23.552 0-42.667-19.072-42.667-42.667s19.115-42.667 42.667-42.667h42.667v-170.667h-42.667c-23.552 0-42.667-19.072-42.667-42.667s19.115-42.667 42.667-42.667h42.667v-170.667h-42.667c-23.552 0-42.667-19.072-42.667-42.667s19.115-42.667 42.667-42.667h42.667v-42.667c0-70.571 57.429-128 128-128h512c70.571 0 128 57.429 128 128v213.333h42.667c70.571 0 128 57.429 128 128v85.333c0 32.896-12.843 62.635-33.28 85.333 20.437 22.699 33.28 52.437 33.28 85.333zM768 106.667c0-23.552-19.157-42.667-42.667-42.667h-512c-23.509 0-42.667 19.115-42.667 42.667v682.667c0 23.552 19.157 42.667 42.667 42.667h554.667zM938.667 448c0-23.552-19.157-42.667-42.667-42.667h-42.667v170.667h42.667c23.509 0 42.667-19.115 42.667-42.667zM938.667 704c0-23.552-19.157-42.667-42.667-42.667h-42.667v170.667h42.667c23.509 0 42.667-19.115 42.667-42.667z" />
<glyph unicode="&#xe90d;" glyph-name="airplane-mode-off" d="M381.269 821.589c19.883-12.587 46.251-6.741 58.88 13.227 15.829 24.917 42.667 39.851 71.851 39.851 47.061 0 85.333-38.272 85.333-85.333v-170.667c0-1.195 0.597-2.176 0.683-3.371 0.256-2.944 0.896-5.717 1.707-8.576 0.768-2.603 1.536-5.035 2.773-7.381 1.237-2.389 2.773-4.437 4.437-6.571 1.835-2.304 3.669-4.437 5.931-6.315 0.896-0.768 1.365-1.835 2.347-2.517l280.789-200.576v-60.331c0-23.552 19.115-42.667 42.667-42.667s42.667 19.115 42.667 42.667v82.304c0 13.781-6.656 26.709-17.877 34.731l-280.789 200.576v148.693c0 94.123-76.544 170.667-170.667 170.667-58.581 0-112.384-29.739-143.957-79.531-12.587-19.925-6.699-46.251 13.227-58.88zM1011.499 8.832l-938.667 938.667c-16.683 16.683-43.648 16.683-60.331 0s-16.683-43.648 0-60.331l938.667-938.667c8.32-8.32 19.243-12.501 30.165-12.501s21.845 4.181 30.165 12.501c16.683 16.683 16.683 43.648 0 60.331zM668.971 38.4l-149.973 25.003c-4.651 0.811-9.387 0.811-14.037 0l-187.52-31.232 100.693 134.229c5.547 7.381 8.533 16.384 8.533 25.6v128c0 2.048-0.896 3.84-1.195 5.845-0.256 1.963 0.085 3.925-0.469 5.888-0.256 0.853-0.896 1.451-1.195 2.304-0.981 2.816-2.475 5.248-4.011 7.765-1.408 2.304-2.645 4.565-4.395 6.528-1.792 2.005-3.925 3.456-6.059 5.12-2.261 1.707-4.352 3.413-6.912 4.651-2.261 1.109-4.651 1.621-7.083 2.304-2.944 0.853-5.803 1.621-8.917 1.792-0.853 0.043-1.579 0.469-2.432 0.469-2.048 0-3.797-0.896-5.76-1.152-2.005-0.299-3.968 0.085-5.973-0.469l-244.267-69.803v92.16l79.915 57.045c19.2 13.696 23.637 40.363 9.941 59.52-13.739 19.2-40.32 23.595-59.52 9.941l-97.792-69.845c-11.221-8.021-17.877-20.949-17.877-34.731v-170.667c0-13.397 6.272-25.984 16.981-34.048 7.467-5.675 16.512-8.619 25.685-8.619 3.925 0 7.893 0.555 11.733 1.664l244.267 69.76v-57.216l-119.467-159.275c-5.547-7.381-8.533-16.384-8.533-25.6v-42.667c0-12.544 5.504-24.448 15.104-32.555 7.765-6.571 17.536-10.112 27.563-10.112 2.347 0 4.693 0.171 7.040 0.597l248.96 41.472 142.933-23.851c23.381-3.883 45.269 11.819 49.109 35.072 3.883 23.253-11.819 45.269-35.072 49.109z" />
<glyph unicode="&#xe90e;" glyph-name="airplane-mode" d="M963.456 440.064l-280.789 200.576v148.693c0 94.123-76.544 170.667-170.667 170.667s-170.667-76.544-170.667-170.667v-148.693l-280.789-200.576c-11.221-8.021-17.877-20.949-17.877-34.731v-170.667c0-13.397 6.272-25.984 16.981-34.048s24.533-10.667 37.419-6.955l244.267 69.76v-57.216l-119.467-159.275c-5.547-7.381-8.533-16.384-8.533-25.6v-42.667c0-12.544 5.504-24.448 15.104-32.555s22.229-11.648 34.603-9.515l248.96 41.472 248.96-41.515c2.347-0.384 4.693-0.555 7.040-0.555 10.027 0 19.797 3.541 27.563 10.112 9.6 8.107 15.104 20.011 15.104 32.555v42.667c0 9.216-2.987 18.219-8.533 25.6l-119.467 159.275v57.216l244.267-69.803c12.885-3.669 26.709-1.109 37.419 6.955s16.981 20.693 16.981 34.091v170.667c0 13.781-6.656 26.709-17.877 34.731zM896 291.243l-244.267 69.803c-12.843 3.669-26.752 1.109-37.419-6.955-10.709-8.107-16.981-20.693-16.981-34.091v-128c0-9.216 2.987-18.219 8.533-25.6l100.651-134.229-187.52 31.232c-2.304 0.427-4.651 0.597-6.997 0.597s-4.693-0.171-7.040-0.597l-187.52-31.232 100.693 134.229c5.547 7.381 8.533 16.384 8.533 25.6v128c0 13.397-6.272 25.984-16.981 34.048-10.667 8.064-24.533 10.667-37.419 6.955l-244.267-69.76v92.16l280.789 200.576c11.221 7.979 17.877 20.907 17.877 34.688v170.667c0 47.061 38.272 85.333 85.333 85.333s85.333-38.272 85.333-85.333v-170.667c0-13.781 6.656-26.709 17.877-34.731l280.789-200.576z" />
<glyph unicode="&#xe90f;" glyph-name="airplane" d="M890.667 576h-151.296l-285.909 326.784c-8.107 9.216-19.797 14.549-32.128 14.549h-128c-14.805 0-28.501-7.68-36.309-20.224-7.765-12.587-8.448-28.288-1.877-41.515l139.819-279.595h-139.989l-94.976 75.989c-7.595 6.059-16.981 9.344-26.667 9.344h-85.333c-13.141 0-25.557-6.059-33.621-16.427s-10.965-23.851-7.765-36.608l40.064-160.299-40.064-160.299c-3.2-12.757-0.299-26.24 7.765-36.608s20.48-16.427 33.621-16.427h85.333c9.685 0 19.072 3.285 26.667 9.344l94.976 75.989h139.989l-139.819-279.595c-6.613-13.227-5.888-28.928 1.877-41.515 7.808-12.544 21.504-20.224 36.309-20.224h128c12.331 0 23.979 5.333 32.085 14.549l285.952 326.784h151.296c70.571 0 128 57.429 128 128s-57.429 128-128 128zM362.368 832h39.595l224-256h-135.595zM401.963 64h-39.595l128 256h135.595zM890.667 405.333h-650.667c-9.685 0-19.072-3.285-26.667-9.344l-94.976-75.989h-15.701l29.397 117.632c1.707 6.784 1.707 13.909 0 20.693l-29.397 117.675h15.744l94.933-75.989c7.595-6.059 16.981-9.344 26.667-9.344h650.667c23.509 0 42.667-19.157 42.667-42.667s-19.157-42.667-42.667-42.667z" />
<glyph unicode="&#xe910;" glyph-name="airplay-audio" d="M512 917.333c-282.325 0-512-229.675-512-512 0-91.989 25.173-182.613 72.789-262.101 12.117-20.224 38.272-26.752 58.539-14.677 20.224 12.117 26.752 38.315 14.677 58.539-39.68 66.261-60.672 141.696-60.672 218.24 0 235.264 191.403 426.667 426.667 426.667s426.667-191.403 426.667-426.667c0-76.544-20.992-151.979-60.672-218.197-12.117-20.224-5.547-46.421 14.677-58.539 6.869-4.096 14.421-6.059 21.888-6.059 14.507 0 28.629 7.381 36.651 20.736 47.616 79.445 72.789 170.069 72.789 262.059 0 282.325-229.675 512-512 512zM512 746.667c-188.203 0-341.333-153.131-341.333-341.333 0-33.024 5.419-67.029 16.085-101.163 7.040-22.528 30.976-35.072 53.461-27.947 22.485 7.040 34.987 30.976 27.947 53.461-8.192 26.197-12.16 50.944-12.16 75.648 0 141.184 114.816 256 256 256s256-114.816 256-256c0-24.704-3.968-49.451-12.203-75.648-7.040-22.485 5.461-46.421 27.947-53.461 4.267-1.323 8.533-1.963 12.757-1.963 18.133 0 34.987 11.691 40.704 29.952 10.709 34.091 16.128 68.096 16.128 101.12 0 188.203-153.131 341.333-341.333 341.333zM585.856 371.2c-35.797 43.435-111.957 43.435-147.755 0l-204.715-248.192c-21.589-26.155-26.112-61.269-11.819-91.563 15.403-32.555 48.213-52.779 85.717-52.779h409.429c37.504 0 70.315 20.224 85.675 52.736 14.293 30.293 9.771 65.408-11.819 91.563zM716.715 64h-409.429c-6.571 0-8.533 3.499-8.021 4.693l204.715 248.192c1.877 2.304 5.376 3.115 8.021 3.115s6.144-0.811 8.021-3.115l205.312-248.704c-0.085-0.683-2.048-4.181-8.619-4.181z" />
<glyph unicode="&#xe911;" glyph-name="airplay-screen" d="M585.856 413.867c-35.797 43.435-111.957 43.435-147.755 0l-204.715-248.192c-21.589-26.155-26.112-61.269-11.819-91.563 15.403-32.555 48.213-52.779 85.717-52.779h409.429c37.504 0 70.315 20.224 85.675 52.736 14.293 30.293 9.771 65.408-11.819 91.563zM716.715 106.667h-409.429c-6.571 0-8.533 3.499-8.021 4.693l204.715 248.192c1.877 2.304 5.376 3.115 8.021 3.115s6.144-0.811 8.021-3.115l205.312-248.704c-0.085-0.683-2.048-4.181-8.619-4.181zM896 874.667h-768c-70.571 0-128-57.429-128-128v-469.333c0-23.552 19.115-42.667 42.667-42.667s42.667 19.115 42.667 42.667v469.333c0 23.509 19.157 42.667 42.667 42.667h768c23.509 0 42.667-19.157 42.667-42.667v-469.333c0-23.552 19.115-42.667 42.667-42.667s42.667 19.115 42.667 42.667v469.333c0 70.571-57.429 128-128 128z" />
<glyph unicode="&#xe912;" glyph-name="youtube2" d="M1002.667 674.134c0 0 0 0 0 0-12.8 59.733-59.733 102.4-115.2 119.467-72.533 17.067-345.6 17.067-375.467 17.067s-302.933 0-379.733-21.333c-55.467-17.067-98.133-59.733-110.933-119.467-12.8-76.8-21.333-153.6-21.333-230.4s4.267-157.867 21.333-238.933c17.067-55.467 59.733-98.133 110.933-110.933 76.8-21.333 345.6-21.333 379.733-21.333s302.933 0 379.733 21.333c55.467 17.067 98.133 59.733 115.2 119.467 12.8 76.8 21.333 153.6 21.333 230.4-4.267 76.8-8.533 153.6-25.6 234.667zM921.6 221.867c-8.533-25.6-25.6-46.933-51.2-55.467-51.2-12.8-238.933-17.067-354.133-17.067s-311.467 8.533-358.4 21.333c-25.6 8.533-46.933 25.6-51.2 46.933-17.067 72.533-21.333 145.067-21.333 221.867 0 72.533 4.267 145.067 17.067 213.333 8.533 25.6 25.6 46.933 51.2 55.467 51.2 12.8 243.2 17.067 358.4 17.067 81.067 0 298.667-4.267 354.133-17.067 25.6-8.533 46.933-25.6 51.2-55.467 17.067-68.267 21.333-140.8 21.333-217.6 0-72.533-4.267-145.067-17.067-213.333zM682.667 473.6l-247.467 140.8c-12.8 8.533-29.867 8.533-42.667 0s-17.067-21.333-17.067-38.4v-277.333c0-17.067 8.533-29.867 21.333-38.4 4.267-4.267 12.8-4.267 21.333-4.267s12.8 0 21.333 4.267l247.467 140.8c12.8 8.533 21.333 21.333 21.333 38.4-4.267 12.8-12.8 25.6-25.6 34.133zM460.8 371.2v132.267l115.2-68.267-115.2-64z" />
<glyph unicode="&#xe913;" glyph-name="alarm-add" d="M1008 779.989l-213.333 170.667c-18.347 14.72-45.269 11.733-59.947-6.656-14.72-18.389-11.733-45.269 6.656-59.947l213.333-170.667c7.851-6.315 17.237-9.387 26.624-9.387 12.501 0 24.917 5.461 33.323 16 14.72 18.432 11.733 45.269-6.656 59.989zM282.667 884.011c18.432 14.72 21.376 41.557 6.656 59.947-14.72 18.432-41.6 21.376-59.989 6.699l-213.333-170.667c-18.432-14.72-21.376-41.557-6.656-59.947 8.448-10.581 20.821-16.043 33.323-16.043 9.387 0 18.773 3.072 26.667 9.344zM682.667 448h-128v128c0 23.552-19.115 42.667-42.667 42.667s-42.667-19.115-42.667-42.667v-128h-128c-23.552 0-42.667-19.115-42.667-42.667s19.115-42.667 42.667-42.667h128v-128c0-23.552 19.115-42.667 42.667-42.667s42.667 19.115 42.667 42.667v128h128c23.552 0 42.667 19.115 42.667 42.667s-19.115 42.667-42.667 42.667zM512 832c-247.040 0-448-200.96-448-448s200.96-448 448-448 448 200.96 448 448-200.96 448-448 448zM512 21.333c-199.979 0-362.667 162.688-362.667 362.667s162.688 362.667 362.667 362.667 362.667-162.688 362.667-362.667-162.688-362.667-362.667-362.667z" />
<glyph unicode="&#xe914;" glyph-name="alarm-cancel" d="M662.869 556.203c-16.683 16.683-43.648 16.683-60.331 0l-90.539-90.539-90.539 90.539c-16.683 16.683-43.648 16.683-60.331 0s-16.683-43.648 0-60.331l90.539-90.539-90.539-90.539c-16.683-16.683-16.683-43.648 0-60.331 8.32-8.32 19.243-12.501 30.165-12.501s21.845 4.181 30.165 12.501l90.539 90.539 90.539-90.539c8.32-8.32 19.243-12.501 30.165-12.501s21.845 4.181 30.165 12.501c16.683 16.683 16.683 43.648 0 60.331l-90.539 90.539 90.539 90.539c16.64 16.64 16.64 43.648 0 60.331zM282.667 884.011c18.432 14.72 21.376 41.557 6.656 59.947-14.72 18.432-41.6 21.376-59.989 6.699l-213.333-170.667c-18.432-14.72-21.376-41.557-6.656-59.947 8.448-10.581 20.821-16.043 33.323-16.043 9.387 0 18.773 3.072 26.667 9.344zM1008 779.989l-213.333 170.667c-18.347 14.72-45.269 11.733-59.947-6.656-14.72-18.389-11.733-45.269 6.656-59.947l213.333-170.667c7.851-6.315 17.237-9.387 26.624-9.387 12.501 0 24.917 5.461 33.323 16 14.72 18.432 11.733 45.269-6.656 59.989zM512 832c-247.040 0-448-200.96-448-448s200.96-448 448-448 448 200.96 448 448-200.96 448-448 448zM512 21.333c-199.979 0-362.667 162.688-362.667 362.667s162.688 362.667 362.667 362.667 362.667-162.688 362.667-362.667-162.688-362.667-362.667-362.667z" />
<glyph unicode="&#xe915;" glyph-name="alarm-check" d="M604.501 557.013l-146.987-220.501-92.501 61.653c-19.669 13.141-46.123 7.765-59.179-11.819-13.099-19.584-7.808-46.123 11.819-59.179l128-85.333c7.296-4.864 15.531-7.168 23.637-7.168 13.781 0 27.349 6.656 35.541 18.987l170.667 256c13.099 19.584 7.808 46.123-11.819 59.179-19.712 13.141-46.123 7.765-59.179-11.819zM282.667 884.011c18.389 14.72 21.376 41.557 6.656 59.947-14.72 18.432-41.557 21.419-59.989 6.699l-213.333-170.667c-18.389-14.72-21.376-41.557-6.656-59.947 8.448-10.581 20.821-16.043 33.365-16.043 9.344 0 18.731 3.072 26.624 9.344zM512 832c-247.040 0-448-200.96-448-448s200.96-448 448-448 448 200.96 448 448-200.96 448-448 448zM512 21.333c-199.979 0-362.667 162.688-362.667 362.667s162.688 362.667 362.667 362.667 362.667-162.688 362.667-362.667-162.688-362.667-362.667-362.667zM1008 779.989l-213.333 170.667c-18.475 14.72-45.227 11.691-59.989-6.656-14.72-18.389-11.691-45.269 6.656-59.947l213.333-170.667c7.893-6.315 17.28-9.387 26.624-9.387 12.544 0 24.917 5.461 33.365 16 14.72 18.432 11.733 45.269-6.656 59.989z" />
<glyph unicode="&#xe916;" glyph-name="whatsapp2" d="M873 811.2c-95.8 96-223.2 148.8-359 148.8-279.6 0-507.2-227.6-507.2-507.4 0-89.4 23.4-176.8 67.8-253.6l-72-263 269 70.6c74.2-40.4 157.6-61.8 242.4-61.8h0.2c0 0 0 0 0 0 279.6 0 507.4 227.6 507.4 507.4 0 135.6-52.8 263-148.6 359zM514.2 30.4v0c-75.8 0-150 20.4-214.8 58.8l-15.4 9.2-159.6-41.8 42.6 155.6-10 16c-42.4 67-64.6 144.6-64.6 224.4 0 232.6 189.2 421.8 422 421.8 112.6 0 218.6-44 298.2-123.6 79.6-79.8 123.4-185.6 123.4-298.4-0.2-232.8-189.4-422-421.8-422zM745.4 346.4c-12.6 6.4-75 37-86.6 41.2s-20 6.4-28.6-6.4c-8.4-12.6-32.8-41.2-40.2-49.8-7.4-8.4-14.8-9.6-27.4-3.2s-53.6 19.8-102 63c-37.6 33.6-63.2 75.2-70.6 87.8s-0.8 19.6 5.6 25.8c5.8 5.6 12.6 14.8 19 22.2s8.4 12.6 12.6 21.2c4.2 8.4 2.2 15.8-1 22.2s-28.6 68.8-39 94.2c-10.2 24.8-20.8 21.4-28.6 21.8-7.4 0.4-15.8 0.4-24.2 0.4s-22.2-3.2-33.8-15.8c-11.6-12.6-44.4-43.4-44.4-105.8s45.4-122.6 51.8-131.2c6.4-8.4 89.4-136.6 216.6-191.4 30.2-13 53.8-20.8 72.2-26.8 30.4-9.6 58-8.2 79.8-5 24.4 3.6 75 30.6 85.6 60.2s10.6 55 7.4 60.2c-3 5.6-11.4 8.8-24.2 15.2z" />
<glyph unicode="&#xe917;" glyph-name="alarm-snooze" d="M640 320h-116.608l89.216 148.693c7.936 13.184 8.107 29.611 0.555 42.965s-21.803 21.675-37.163 21.675h-192c-23.595 0-42.667-19.115-42.667-42.667s19.072-42.667 42.667-42.667h116.608l-89.216-148.693c-7.936-13.184-8.107-29.611-0.555-42.965s21.803-21.675 37.163-21.675h192c23.595 0 42.667 19.115 42.667 42.667s-19.072 42.667-42.667 42.667zM282.667 884.011c18.389 14.72 21.376 41.557 6.656 59.947-14.763 18.432-41.515 21.419-59.989 6.699l-213.333-170.667c-18.389-14.72-21.376-41.557-6.656-59.947 8.448-10.581 20.821-16.043 33.365-16.043 9.344 0 18.731 3.072 26.624 9.344zM1008 779.989l-213.333 170.667c-18.432 14.72-45.269 11.691-59.989-6.656-14.72-18.389-11.691-45.269 6.656-59.947l213.333-170.667c7.893-6.315 17.28-9.387 26.624-9.387 12.544 0 24.917 5.461 33.365 16 14.72 18.432 11.733 45.269-6.656 59.989zM512 832c-247.040 0-448-200.96-448-448s200.96-448 448-448 448 200.96 448 448-200.96 448-448 448zM512 21.333c-199.979 0-362.667 162.688-362.667 362.667s162.688 362.667 362.667 362.667 362.667-162.688 362.667-362.667-162.688-362.667-362.667-362.667z" />
<glyph unicode="&#xe918;" glyph-name="alarm" d="M512 618.667c-23.552 0-42.667-19.115-42.667-42.667v-170.667h-128c-23.552 0-42.667-19.115-42.667-42.667s19.115-42.667 42.667-42.667h170.667c23.552 0 42.667 19.115 42.667 42.667v213.333c0 23.552-19.115 42.667-42.667 42.667zM282.667 884.011c18.432 14.72 21.376 41.557 6.656 59.947-14.72 18.432-41.6 21.376-59.989 6.699l-213.333-170.667c-18.432-14.72-21.376-41.557-6.656-59.947 8.448-10.581 20.821-16.043 33.323-16.043 9.387 0 18.773 3.072 26.667 9.344zM512 832c-247.040 0-448-200.96-448-448s200.96-448 448-448 448 200.96 448 448-200.96 448-448 448zM512 21.333c-199.979 0-362.667 162.688-362.667 362.667s162.688 362.667 362.667 362.667 362.667-162.688 362.667-362.667-162.688-362.667-362.667-362.667zM1008 779.989l-213.333 170.667c-18.347 14.72-45.269 11.733-59.947-6.656-14.72-18.389-11.733-45.269 6.656-59.947l213.333-170.667c7.851-6.315 17.237-9.387 26.624-9.387 12.501 0 24.917 5.461 33.323 16 14.72 18.432 11.733 45.269-6.656 59.989z" />
<glyph unicode="&#xe919;" glyph-name="album-audio" d="M699.691 200.533c7.723-5.76 16.683-8.533 25.6-8.533 12.971 0 25.771 5.888 34.133 17.024 33.536 44.587 51.243 97.707 51.243 153.643s-17.707 109.056-51.243 153.643c-14.123 18.816-40.875 22.613-59.733 8.491-18.816-14.165-22.656-40.875-8.491-59.733 22.357-29.696 34.133-65.109 34.133-102.4s-11.776-72.704-34.091-102.4c-14.165-18.816-10.368-45.568 8.448-59.733zM938.667 960h-725.333c-94.123 0-170.667-76.544-170.667-170.667v-682.667c0-94.123 76.544-170.667 170.667-170.667h725.333c23.552 0 42.667 19.115 42.667 42.667v938.667c0 23.552-19.115 42.667-42.667 42.667zM896 789.333h-597.333c-23.552 0-42.667-19.115-42.667-42.667s19.115-42.667 42.667-42.667h597.333v-682.667h-682.667c-47.061 0-85.333 38.272-85.333 85.333v682.667c0 47.061 38.272 85.333 85.333 85.333h682.667zM341.333 234.667h32.597l161.664-80.853c6.016-2.987 12.544-4.48 19.072-4.48 7.808 0 15.573 2.133 22.443 6.357 12.544 7.808 20.224 21.504 20.224 36.309v341.333c0 14.805-7.68 28.501-20.224 36.309-12.587 7.765-28.288 8.448-41.515 1.877l-161.664-80.853h-32.597c-70.571 0-128-57.429-128-128s57.429-128 128-128zM341.333 405.333h42.667c6.613 0 13.184 1.536 19.072 4.48l108.928 54.485v-203.264l-108.928 54.443c-5.888 2.987-12.459 4.523-19.072 4.523h-42.667c-23.509 0-42.667 19.157-42.667 42.667s19.157 42.667 42.667 42.667z" />
<glyph unicode="&#xe91a;" glyph-name="album-music" d="M512 106.667c94.123 0 170.667 66.987 170.667 149.333v320c0 23.552-19.115 42.667-42.667 42.667s-42.667-19.115-42.667-42.667v-191.445c-25.216 12.885-54.101 20.779-85.333 20.779-94.123 0-170.667-66.987-170.667-149.333s76.544-149.333 170.667-149.333zM512 320c46.251 0 85.333-29.312 85.333-64s-39.083-64-85.333-64-85.333 29.312-85.333 64 39.083 64 85.333 64zM938.667 960h-725.333c-94.123 0-170.667-76.544-170.667-170.667v-682.667c0-94.123 76.544-170.667 170.667-170.667h725.333c23.552 0 42.667 19.115 42.667 42.667v938.667c0 23.552-19.115 42.667-42.667 42.667zM896 789.333h-597.333c-23.552 0-42.667-19.115-42.667-42.667s19.115-42.667 42.667-42.667h597.333v-682.667h-682.667c-47.061 0-85.333 38.272-85.333 85.333v682.667c0 47.061 38.272 85.333 85.333 85.333h682.667z" />
<glyph unicode="&#xe91b;" glyph-name="album-photo" d="M938.667 960h-725.333c-94.123 0-170.667-76.544-170.667-170.667v-682.667c0-29.141 8.021-56.192 20.992-80.256 1.067-2.475 2.261-4.779 3.84-7.040 29.824-49.707 83.755-83.371 145.835-83.371h725.333c23.552 0 42.667 19.115 42.667 42.667v938.667c0 23.552-19.115 42.667-42.667 42.667zM213.333 21.333c-21.888 0-41.643 8.491-56.747 22.101l226.773 291.584 234.795-313.685zM896 789.333h-597.333c-23.552 0-42.667-19.115-42.667-42.667s19.115-42.667 42.667-42.667h597.333v-682.667h-171.221l-306.603 409.557c-7.979 10.667-20.48 16.981-33.792 17.109-14.891 1.493-25.899-5.973-34.091-16.469l-222.293-285.824v643.627c0 47.061 38.272 85.333 85.333 85.333h682.667zM682.667 362.667c70.571 0 128 57.429 128 128s-57.429 128-128 128-128-57.429-128-128 57.429-128 128-128zM682.667 533.333c23.509 0 42.667-19.157 42.667-42.667s-19.157-42.667-42.667-42.667-42.667 19.157-42.667 42.667 19.157 42.667 42.667 42.667z" />
<glyph unicode="&#xe91c;" glyph-name="album-portrait" d="M512 319.957c82.347 0 149.333 66.987 149.333 149.333s-66.987 149.333-149.333 149.333-149.333-66.987-149.333-149.333 66.987-149.333 149.333-149.333zM512 533.291c35.285 0 64-28.715 64-64s-28.715-64-64-64-64 28.715-64 64 28.715 64 64 64zM367.531 150.955c33.024 25.685 87.083 41.003 144.469 41.003s111.445-15.317 144.469-41.003c7.808-6.059 16.981-8.96 26.155-8.96 12.715 0 25.301 5.675 33.707 16.469 14.464 18.603 11.093 45.397-7.509 59.861-48.213 37.461-119.979 58.965-196.864 58.965s-148.608-21.504-196.864-58.965c-18.603-14.464-21.973-41.259-7.509-59.861 14.549-18.645 41.301-21.931 59.947-7.509zM938.667 960h-725.333c-94.123 0-170.667-76.544-170.667-170.667v-682.667c0-94.123 76.544-170.667 170.667-170.667h725.333c23.552 0 42.667 19.115 42.667 42.667v938.667c0 23.552-19.115 42.667-42.667 42.667zM896 789.333h-597.333c-23.552 0-42.667-19.115-42.667-42.667s19.115-42.667 42.667-42.667h597.333v-682.667h-682.667c-47.061 0-85.333 38.272-85.333 85.333v682.667c0 47.061 38.272 85.333 85.333 85.333h682.667z" />
<glyph unicode="&#xe91d;" glyph-name="album-time" d="M426.667 320h85.333c23.595 0 42.667 19.072 42.667 42.667v85.333c0 23.552-19.072 42.667-42.667 42.667s-42.667-19.115-42.667-42.667v-42.667h-42.667c-23.595 0-42.667-19.072-42.667-42.667s19.072-42.667 42.667-42.667zM938.667 960h-725.333c-94.123 0-170.667-76.544-170.667-170.667v-682.667c0-94.123 76.544-170.667 170.667-170.667h725.333c23.595 0 42.667 19.072 42.667 42.667v938.667c0 23.552-19.072 42.667-42.667 42.667zM896 789.333h-597.333c-23.595 0-42.667-19.115-42.667-42.667s19.072-42.667 42.667-42.667h597.333v-682.667h-682.667c-47.061 0-85.333 38.272-85.333 85.333v682.667c0 47.061 38.272 85.333 85.333 85.333h682.667zM512 106.667c141.184 0 256 114.816 256 256s-114.816 256-256 256-256-114.816-256-256 114.816-256 256-256zM512 533.333c94.123 0 170.667-76.544 170.667-170.667s-76.544-170.667-170.667-170.667-170.667 76.544-170.667 170.667 76.544 170.667 170.667 170.667z" />
<glyph unicode="&#xe91e;" glyph-name="alert-engine" d="M512 362.453c-23.552 0-42.667-19.328-42.667-42.88s19.115-42.667 42.667-42.667 42.667 19.115 42.667 42.667v0.427c0 23.552-19.115 42.453-42.667 42.453zM85.333 448c0 98.944 34.645 195.371 97.493 271.488 15.019 18.176 12.459 45.056-5.717 60.075-18.176 14.976-45.056 12.416-60.075-5.717-75.477-91.435-117.035-207.147-117.035-325.845s41.557-234.411 117.035-325.845c8.448-10.197 20.651-15.488 32.939-15.488 9.557 0 19.2 3.2 27.136 9.771 18.176 15.019 20.736 41.899 5.717 60.075-62.848 76.117-97.493 172.544-97.493 271.488zM512 618.667c-23.552 0-42.667-19.115-42.667-42.667v-128c0-23.552 19.115-42.667 42.667-42.667s42.667 19.115 42.667 42.667v128c0 23.552-19.115 42.667-42.667 42.667zM512 789.333c-188.203 0-341.333-153.131-341.333-341.333s153.131-341.333 341.333-341.333 341.333 153.131 341.333 341.333-153.131 341.333-341.333 341.333zM512 192c-141.184 0-256 114.816-256 256s114.816 256 256 256 256-114.816 256-256-114.816-256-256-256zM906.965 773.845c-15.019 18.133-41.813 20.693-60.075 5.717-18.176-15.019-20.736-41.899-5.717-60.075 62.848-76.117 97.493-172.544 97.493-271.488s-34.645-195.371-97.493-271.488c-15.019-18.176-12.459-45.056 5.717-60.075 7.979-6.571 17.579-9.771 27.136-9.771 12.288 0 24.491 5.291 32.896 15.488 75.52 91.435 117.077 207.147 117.077 325.845s-41.557 234.411-117.035 325.845z" />
<glyph unicode="&#xe91f;" glyph-name="alert" d="M512 533.333c-23.552 0-42.667-19.115-42.667-42.667v-256c0-23.552 19.115-42.667 42.667-42.667s42.667 19.115 42.667 42.667v256c0 23.552-19.115 42.667-42.667 42.667zM512 661.547c-23.552 0-42.667-19.328-42.667-42.88s19.115-42.667 42.667-42.667 42.667 19.115 42.667 42.667v0.427c0 23.552-19.115 42.453-42.667 42.453zM874.027 810.027c-199.595 199.595-524.459 199.637-724.096 0-199.595-199.637-199.595-524.459 0-724.096 99.797-99.797 230.912-149.717 362.027-149.717s262.229 49.877 362.027 149.717c199.68 199.637 199.68 524.501 0.043 724.096zM813.696 146.304c-166.357-166.315-437.035-166.315-603.435 0-166.315 166.357-166.315 437.077 0 603.435 166.357 166.315 437.077 166.315 603.435 0 166.357-166.4 166.357-437.077 0-603.435z" />
<glyph unicode="&#xe920;" glyph-name="add-to-cart" d="M416-64c-53.019 0-96 42.981-96 96s42.981 96 96 96c53.019 0 96-42.981 96-96v0c0-53.019-42.981-96-96-96v0zM416 64c-17.673 0-32-14.327-32-32s14.327-32 32-32c17.673 0 32 14.327 32 32v0c0 17.673-14.327 32-32 32v0zM800-64c-53.019 0-96 42.981-96 96s42.981 96 96 96c53.019 0 96-42.981 96-96v0c0-53.019-42.981-96-96-96v0zM800 64c-17.673 0-32-14.327-32-32s14.327-32 32-32c17.673 0 32 14.327 32 32v0c0 17.673-14.327 32-32 32v0zM864 192h-512c-14.735 0.002-27.143 9.964-30.86 23.519l-0.052 0.225-164.544 616.256h-124.544c-17.673 0-32 14.327-32 32s14.327 32 32 32v0h149.12c14.735-0.002 27.143-9.964 30.86-23.519l0.052-0.225 164.544-616.256h487.424c17.673 0 32-14.327 32-32s-14.327-32-32-32v0zM608 448c-17.673 0-32 14.327-32 32v0 128c0 17.673 14.327 32 32 32s32-14.327 32-32v0-128c0-17.673-14.327-32-32-32v0zM672 512h-128c-17.673 0-32 14.327-32 32s14.327 32 32 32v0h128c17.673 0 32-14.327 32-32s-14.327-32-32-32v0zM316.8 324.48c-0.21-0.005-0.456-0.008-0.704-0.008-17.677 0-32.008 14.33-32.008 32.008 0 17.43 13.932 31.606 31.267 31.999l0.037 0.001 585.728 26.368 52.48 289.152h-738.56c-17.673 0-32 14.327-32 32s14.327 32 32 32v0h776.96c17.673-0.001 31.999-14.327 31.999-32 0-2.013-0.186-3.983-0.542-5.894l0.031 0.198-64-352c-2.718-14.551-14.987-25.529-29.944-26.237l-0.072-0.003-611.2-27.52z" />
<glyph unicode="&#xe921;" glyph-name="android" d="M736 128h-64c-17.673 0-32 14.327-32 32s14.327 32 32 32v0h32v416c0 123.712-100.288 224-224 224s-224-100.288-224-224v0-416h32c17.673 0 32-14.327 32-32s-14.327-32-32-32v0h-64c-17.673 0-32 14.327-32 32v0 448c0 159.058 128.942 288 288 288s288-128.942 288-288v0-448c0-17.673-14.327-32-32-32v0zM544 128h-128c-17.673 0-32 14.327-32 32s14.327 32 32 32v0h128c17.673 0 32-14.327 32-32s-14.327-32-32-32v0zM352-64c-53.019 0-96 42.981-96 96v0 128c0 17.673 14.327 32 32 32s32-14.327 32-32v0-128c0-17.673 14.327-32 32-32s32 14.327 32 32v0 128c0 17.673 14.327 32 32 32s32-14.327 32-32v0-128c0-53.019-42.981-96-96-96v0zM608-64c-53.019 0-96 42.981-96 96v0 128c0 17.673 14.327 32 32 32s32-14.327 32-32v0-128c0-17.673 14.327-32 32-32s32 14.327 32 32v0 128c0 17.673 14.327 32 32 32s32-14.327 32-32v0-128c0-53.019-42.981-96-96-96v0zM96 256c-17.673 0-32 14.327-32 32v0 320c0 17.673 14.327 32 32 32s32-14.327 32-32v0-320c0-17.673-14.327-32-32-32v0zM864 256c-17.673 0-32 14.327-32 32v0 320c0 17.673 14.327 32 32 32s32-14.327 32-32v0-320c0-17.673-14.327-32-32-32v0zM736 576h-512c-17.673 0-32 14.327-32 32s14.327 32 32 32v0h512c17.673 0 32-14.327 32-32s-14.327-32-32-32v0zM308.48 765.44c-11.224 0.004-21.096 5.786-26.805 14.533l-0.075 0.123-84.48 130.56c-3.479 5.046-5.558 11.291-5.558 18.022 0 17.673 14.327 32 32 32 11.51 0 21.6-6.077 27.238-15.197l0.079-0.137 84.48-130.56c3.203-4.899 5.108-10.899 5.108-17.344 0-17.646-14.284-31.957-31.92-32h-0.004zM656.576 760.96c-17.666 0.010-31.983 14.333-31.983 32 0 5.969 1.634 11.557 4.48 16.339l-0.081-0.147 79.36 135.040c5.665 9.507 15.892 15.777 27.584 15.777 17.674 0 32.001-14.328 32.001-32.001 0-5.982-1.641-11.581-4.498-16.371l0.081 0.147-79.36-135.040c-5.669-9.489-15.886-15.744-27.563-15.744-0.007 0-0.014 0-0.022 0h0.001zM545.28 704c-17.673 0-32 14.327-32 32v0c0 0.002 0 0.004 0 0.006 0 17.448 13.964 31.635 31.327 31.993l0.033 0.001h0.64c17.673 0 32-14.327 32-32s-14.327-32-32-32v0zM417.28 704c-17.673 0-32 14.327-32 32v0c0 0.002 0 0.004 0 0.006 0 17.448 13.964 31.635 31.327 31.993l0.033 0.001h0.64c17.673 0 32-14.327 32-32s-14.327-32-32-32v0z" />
<glyph unicode="&#xe922;" glyph-name="align-center" d="M256 618.667c-23.552 0-42.667-19.115-42.667-42.667s19.115-42.667 42.667-42.667h512c23.552 0 42.667 19.115 42.667 42.667s-19.115 42.667-42.667 42.667zM85.333 789.333h853.333c23.552 0 42.667 19.115 42.667 42.667s-19.115 42.667-42.667 42.667h-853.333c-23.552 0-42.667-19.115-42.667-42.667s19.115-42.667 42.667-42.667zM768 106.667h-512c-23.552 0-42.667-19.115-42.667-42.667s19.115-42.667 42.667-42.667h512c23.552 0 42.667 19.115 42.667 42.667s-19.115 42.667-42.667 42.667zM938.667 362.667h-853.333c-23.552 0-42.667-19.115-42.667-42.667s19.115-42.667 42.667-42.667h853.333c23.552 0 42.667 19.115 42.667 42.667s-19.115 42.667-42.667 42.667z" />
<glyph unicode="&#xe923;" glyph-name="apple" d="M502.592 664.96h-5.12c-15.136 0.59-27.534 11.608-30.241 26.042l-0.031 0.198c-1.181 8.695-1.856 18.744-1.856 28.951 0 57.116 21.118 109.3 55.971 149.17l-0.227-0.265c40.683 49.422 99.105 82.958 165.397 90.829l1.195 0.115c0.676 0.051 1.465 0.080 2.261 0.080 16.030 0 29.307-11.787 31.637-27.167l0.022-0.177c0.99-8.239 1.554-17.78 1.554-27.453 0-57.933-20.256-111.134-54.073-152.909l0.358 0.457c-38.672-51.407-98.56-85.058-166.412-87.858l-0.436-0.014zM659.072 888.96c-35.466-12.244-65.342-33.021-88.211-59.938l-0.237-0.286c-22.151-26.447-37.187-59.552-41.762-95.914l-0.094-0.918c36.701 9.676 67.528 30.717 89.313 59.068l0.287 0.388c21.395 27.036 36.002 60.365 40.726 96.796l0.106 0.996zM367.36-64h-1.664c-84.416 0.768-145.344 78.592-188.992 146.304-111.936 173.696-134.848 390.848-54.464 516.928 46.868 78.289 129.351 131.060 224.485 135.909l0.667 0.027c40.008-1.25 77.663-9.931 112.086-24.702l-2.006 0.766c20.742-9.338 44.833-15.506 70.152-17.183l0.632-0.033c22.607 1.391 43.579 7.026 62.583 16.117l-1.015-0.437c34.933 15.662 75.66 25.027 118.51 25.598l0.21 0.002c84.705-3.612 158.918-45.573 206.146-108.853l0.51-0.715c4.279-5.392 6.864-12.296 6.864-19.804 0-11.944-6.544-22.359-16.241-27.857l-0.159-0.083c-54.572-29.972-90.946-87.059-90.946-152.641 0-5.249 0.233-10.444 0.689-15.574l-0.048 0.663c4.1-71.435 49.463-131.328 112.456-156.502l1.208-0.426c12.079-4.758 20.472-16.325 20.472-29.851 0-4.693-1.010-9.15-2.825-13.166l0.081 0.201c-19.307-46.603-40.603-86.419-65.25-123.832l1.698 2.744c-48.768-75.648-109.76-153.088-192-153.6-29.835 0.555-57.761 8.211-82.32 21.341l0.976-0.477c-23.357 11.827-50.846 18.976-79.95 19.517l-0.178 0.003c-0.331 0.002-0.723 0.004-1.115 0.004-29.453 0-57.208-7.269-81.57-20.111l0.957 0.46c-23.383-12.524-51.057-20.126-80.45-20.733l-0.19-0.003zM347.392 671.168c-73.231-4.837-135.898-45.941-170.654-105.359l-0.546-1.009c-56.576-88.704-56.768-275.776 54.272-448 34.944-54.208 81.984-116.544 135.808-116.992 20.366 0.94 39.265 6.372 56.002 15.321l-0.706-0.345c31.243 16.138 68.193 25.6 107.352 25.6 0.014 0 0.028 0 0.042 0h1.662c0.431 0.003 0.941 0.005 1.452 0.005 38.184 0 74.156-9.473 105.693-26.197l-1.225 0.593c15.513-8.629 33.89-14.032 53.452-14.84l0.244-0.008c52.288 0.384 101.696 66.688 138.88 124.416 16.009 23.72 31.383 51.012 44.558 79.528l1.522 3.672c-70.666 40.115-118.781 112.822-123.935 197.14l-0.033 0.684c-0.557 6.078-0.875 13.145-0.875 20.287 0 75.306 35.343 142.356 90.346 185.47l0.513 0.388c-33.872 34.84-80.51 57.113-132.346 59.251l-0.39 0.013c-34.883-0.587-67.801-8.377-97.532-21.938l1.532 0.626c-24.802-11.51-53.713-18.74-84.171-19.954l-0.437-0.014c-33.772 1.49-65.39 9.091-94.31 21.718l1.702-0.662c-25.787 11.595-55.766 19.023-87.288 20.585l-0.584 0.023z" />
<glyph unicode="&#xe924;" glyph-name="audio-wave" d="M896 0h-832c-35.346 0-64 28.654-64 64v0 768c0 35.346 28.654 64 64 64v0h832c35.346 0 64-28.654 64-64v0-768c0-35.346-28.654-64-64-64v0zM64 832v-768h832v768zM512 128c-0.010 0-0.022 0-0.034 0-13.53 0-25.098 8.397-29.779 20.263l-0.075 0.217-129.728 337.408-66.432-177.152c-4.497-11.695-15.344-19.981-28.208-20.669l-0.080-0.003c-0.67-0.051-1.45-0.080-2.237-0.080-12.309 0-22.952 7.136-28.017 17.496l-0.081 0.184-55.104 110.336h-140.224c-17.673 0-32 14.327-32 32s14.327 32 32 32v0h160c12.446 0 23.233-7.106 28.524-17.483l0.084-0.181 31.168-62.4 70.4 187.328c4.674 12.18 16.249 20.68 29.817 20.736h0.007c0.010 0 0.022 0 0.034 0 13.53 0 25.098-8.397 29.779-20.263l0.075-0.217 121.6-316.992 104.96 472.448c3.285 14.451 16.023 25.075 31.242 25.075 12.964 0 24.128-7.71 29.157-18.794l0.082-0.201 119.552-268.8h139.52c17.673 0 32-14.327 32-32s-14.327-32-32-32v0h-160c-13.011 0.034-24.194 7.828-29.167 18.996l-0.081 0.204-88.576 198.848-106.944-481.28c-3.093-13.684-14.641-23.929-28.755-25.017l-0.109-0.007z" />
<glyph unicode="&#xe925;" glyph-name="align-justify" d="M85.333 789.333h853.333c23.552 0 42.667 19.115 42.667 42.667s-19.115 42.667-42.667 42.667h-853.333c-23.552 0-42.667-19.115-42.667-42.667s19.115-42.667 42.667-42.667zM938.667 106.667h-853.333c-23.552 0-42.667-19.115-42.667-42.667s19.115-42.667 42.667-42.667h853.333c23.552 0 42.667 19.115 42.667 42.667s-19.115 42.667-42.667 42.667zM938.667 618.667h-853.333c-23.552 0-42.667-19.115-42.667-42.667s19.115-42.667 42.667-42.667h853.333c23.552 0 42.667 19.115 42.667 42.667s-19.115 42.667-42.667 42.667zM938.667 362.667h-853.333c-23.552 0-42.667-19.115-42.667-42.667s19.115-42.667 42.667-42.667h853.333c23.552 0 42.667 19.115 42.667 42.667s-19.115 42.667-42.667 42.667z" />
<glyph unicode="&#xe926;" glyph-name="align-left" d="M85.333 789.333h853.333c23.595 0 42.667 19.115 42.667 42.667s-19.072 42.667-42.667 42.667h-853.333c-23.595 0-42.667-19.115-42.667-42.667s19.072-42.667 42.667-42.667zM85.333 533.333h512c23.595 0 42.667 19.115 42.667 42.667s-19.072 42.667-42.667 42.667h-512c-23.595 0-42.667-19.115-42.667-42.667s19.072-42.667 42.667-42.667zM597.333 106.667h-512c-23.595 0-42.667-19.115-42.667-42.667s19.072-42.667 42.667-42.667h512c23.595 0 42.667 19.115 42.667 42.667s-19.072 42.667-42.667 42.667zM938.667 362.667h-853.333c-23.595 0-42.667-19.115-42.667-42.667s19.072-42.667 42.667-42.667h853.333c23.595 0 42.667 19.115 42.667 42.667s-19.072 42.667-42.667 42.667z" />
<glyph unicode="&#xe927;" glyph-name="align-right" d="M85.333 789.333h853.333c23.595 0 42.667 19.115 42.667 42.667s-19.072 42.667-42.667 42.667h-853.333c-23.595 0-42.667-19.115-42.667-42.667s19.072-42.667 42.667-42.667zM938.667 106.667h-512c-23.595 0-42.667-19.115-42.667-42.667s19.072-42.667 42.667-42.667h512c23.595 0 42.667 19.115 42.667 42.667s-19.072 42.667-42.667 42.667zM938.667 362.667h-853.333c-23.595 0-42.667-19.115-42.667-42.667s19.072-42.667 42.667-42.667h853.333c23.595 0 42.667 19.115 42.667 42.667s-19.072 42.667-42.667 42.667zM938.667 618.667h-512c-23.595 0-42.667-19.115-42.667-42.667s19.072-42.667 42.667-42.667h512c23.595 0 42.667 19.115 42.667 42.667s-19.072 42.667-42.667 42.667z" />
<glyph unicode="&#xe928;" glyph-name="bank-building" d="M928 512h-896c-17.673 0-32 14.327-32 32v0 64c0.004 11.83 6.427 22.159 15.974 27.694l0.154 0.082 448 256c4.59 2.695 10.109 4.287 16 4.287s11.41-1.592 16.151-4.369l-0.151 0.082 448-256c9.561-5.653 15.872-15.909 15.872-27.639 0-0.048 0-0.097 0-0.145v0.007-64c0-17.673-14.327-32-32-32v0zM64 576h832v13.44l-416 237.696-416-237.696zM928 0h-896c-17.673 0-32 14.327-32 32v0 96c0 35.346 28.654 64 64 64v0h832c35.346 0 64-28.654 64-64v0-96c0-17.673-14.327-32-32-32v0zM64 64h832v64h-832zM96 128c-17.673 0-32 14.327-32 32v0 384c0 17.673 14.327 32 32 32s32-14.327 32-32v0-384c0-17.673-14.327-32-32-32v0zM224 128c-17.673 0-32 14.327-32 32v0 384c0 17.673 14.327 32 32 32s32-14.327 32-32v0-384c0-17.673-14.327-32-32-32v0zM416 128c-17.673 0-32 14.327-32 32v0 384c0 17.673 14.327 32 32 32s32-14.327 32-32v0-384c0-17.673-14.327-32-32-32v0zM544 128c-17.673 0-32 14.327-32 32v0 384c0 17.673 14.327 32 32 32s32-14.327 32-32v0-384c0-17.673-14.327-32-32-32v0zM736 128c-17.673 0-32 14.327-32 32v0 384c0 17.673 14.327 32 32 32s32-14.327 32-32v0-384c0-17.673-14.327-32-32-32v0zM864 128c-17.673 0-32 14.327-32 32v0 384c0 17.673 14.327 32 32 32s32-14.327 32-32v0-384c0-17.673-14.327-32-32-32v0z" />
<glyph unicode="&#xe929;" glyph-name="ambulance" d="M469.333 618.667h-85.333v85.333c0 23.552-19.072 42.667-42.667 42.667s-42.667-19.115-42.667-42.667v-85.333h-85.333c-23.595 0-42.667-19.115-42.667-42.667s19.072-42.667 42.667-42.667h85.333v-85.333c0-23.552 19.072-42.667 42.667-42.667s42.667 19.115 42.667 42.667v85.333h85.333c23.595 0 42.667 19.115 42.667 42.667s-19.072 42.667-42.667 42.667zM995.968 540.672l-100.736 125.909c-40.747 50.901-101.461 80.085-166.613 80.085h-45.952c0 70.571-57.429 128-128 128h-426.667c-70.571 0-128-57.429-128-128v-554.667c0-23.552 19.072-42.667 42.667-42.667h91.392c19.072-73.387 85.291-128 164.608-128 94.123 0 170.667 76.544 170.667 170.667s-76.544 170.667-170.667 170.667c-79.317 0-145.536-54.613-164.608-128h-48.725v512c0 23.509 19.115 42.667 42.667 42.667h426.667c23.552 0 42.667-19.157 42.667-42.667v-42.667c0-7.936 2.773-14.976 6.528-21.333-3.755-6.357-6.528-13.397-6.528-21.333v-170.667c0-23.552 19.072-42.667 42.667-42.667h298.667v-213.333h-42.667c-2.005 0-3.755-0.896-5.717-1.152-18.645 73.984-85.205 129.152-164.949 129.152-94.123 0-170.667-76.544-170.667-170.667s76.544-170.667 170.667-170.667c79.744 0 146.304 55.168 164.949 129.152 1.963-0.256 3.712-1.152 5.717-1.152h85.333c23.595 0 42.667 19.115 42.667 42.667v268.715c0 29.013-9.941 57.429-28.032 79.957zM298.667 277.333c47.061 0 85.333-38.272 85.333-85.333s-38.272-85.333-85.333-85.333-85.333 38.272-85.333 85.333 38.272 85.333 85.333 85.333zM682.667 533.333v128h45.952c39.083 0 75.563-17.536 99.968-48.043l63.957-79.957zM725.333 106.667c-47.061 0-85.333 38.272-85.333 85.333s38.272 85.333 85.333 85.333 85.333-38.272 85.333-85.333-38.272-85.333-85.333-85.333z" />
<glyph unicode="&#xe92a;" glyph-name="calculator" d="M960-64h-832c-35.346 0-64 28.654-64 64v0 896c0 35.346 28.654 64 64 64v0h832c35.346 0 64-28.654 64-64v0-896c0-35.346-28.654-64-64-64v0zM960 0v0zM128 896v-896h832v896zM352 320h-128c-17.673 0-32 14.327-32 32v0 128c0 17.673 14.327 32 32 32v0h128c17.673 0 32-14.327 32-32v0-128c0-17.673-14.327-32-32-32v0zM256 384h64v64h-64zM608 320h-128c-17.673 0-32 14.327-32 32v0 128c0 17.673 14.327 32 32 32v0h128c17.673 0 32-14.327 32-32v0-128c0-17.673-14.327-32-32-32v0zM512 384h64v64h-64zM864 576h-640c-17.673 0-32 14.327-32 32v0 192c0 17.673 14.327 32 32 32v0h640c17.673 0 32-14.327 32-32v0-192c0-17.673-14.327-32-32-32v0zM256 640h576v128h-576zM352 64h-128c-17.673 0-32 14.327-32 32v0 128c0 17.673 14.327 32 32 32v0h128c17.673 0 32-14.327 32-32v0-128c0-17.673-14.327-32-32-32v0zM256 128h64v64h-64zM608 64h-128c-17.673 0-32 14.327-32 32v0 128c0 17.673 14.327 32 32 32v0h128c17.673 0 32-14.327 32-32v0-128c0-17.673-14.327-32-32-32v0zM512 128h64v64h-64zM864 64h-128c-17.673 0-32 14.327-32 32v0 384c0 17.673 14.327 32 32 32v0h128c17.673 0 32-14.327 32-32v0-384c0-17.673-14.327-32-32-32v0zM768 128h64v320h-64z" />
<glyph unicode="&#xe92b;" glyph-name="anchor" d="M938.667 405.333h-85.333c-23.552 0-42.667-19.115-42.667-42.667s19.115-42.667 42.667-42.667h42.667v-108.971c-97.664-85.248-217.003-135.552-341.333-145.024v516.053c73.387 19.072 128 85.333 128 164.608 0 94.123-76.544 170.667-170.667 170.667s-170.667-76.544-170.667-170.667c0-79.275 54.613-145.536 128-164.608v-516.096c-124.331 9.472-243.669 59.819-341.333 145.024v109.013h42.667c23.552 0 42.667 19.115 42.667 42.667s-19.115 42.667-42.667 42.667h-85.333c-11.307 0-22.187-4.48-30.165-12.501s-12.501-18.859-12.501-30.165v-170.667c0-11.904 4.949-23.211 13.696-31.317 126.805-117.376 288.64-182.016 455.637-182.016s328.832 64.64 455.637 182.016c8.747 8.107 13.696 19.413 13.696 31.317v170.667c0 23.552-19.115 42.667-42.667 42.667zM426.667 746.667c0 47.061 38.272 85.333 85.333 85.333s85.333-38.272 85.333-85.333-38.272-85.333-85.333-85.333-85.333 38.272-85.333 85.333z" />
<glyph unicode="&#xe92c;" glyph-name="android-phone" d="M725.333 960h-426.667c-94.123 0-170.667-76.544-170.667-170.667v-682.667c0-94.123 76.544-170.667 170.667-170.667h426.667c94.123 0 170.667 76.544 170.667 170.667v682.667c0 94.123-76.544 170.667-170.667 170.667zM810.667 106.667c0-47.061-38.272-85.333-85.333-85.333h-426.667c-47.061 0-85.333 38.272-85.333 85.333v85.333h597.333zM810.667 277.333h-597.333v512c0 47.061 38.272 85.333 85.333 85.333h426.667c47.061 0 85.333-38.272 85.333-85.333zM426.667 64h170.667c23.552 0 42.667 19.115 42.667 42.667s-19.115 42.667-42.667 42.667h-170.667c-23.552 0-42.667-19.115-42.667-42.667s19.115-42.667 42.667-42.667z" />
<glyph unicode="&#xe92d;" glyph-name="android-tablet" d="M426.667 64h170.667c23.552 0 42.667 19.115 42.667 42.667s-19.115 42.667-42.667 42.667h-170.667c-23.552 0-42.667-19.115-42.667-42.667s19.115-42.667 42.667-42.667zM810.667 960h-597.333c-94.123 0-170.667-76.544-170.667-170.667v-682.667c0-94.123 76.544-170.667 170.667-170.667h597.333c94.123 0 170.667 76.544 170.667 170.667v682.667c0 94.123-76.544 170.667-170.667 170.667zM896 106.667c0-47.061-38.272-85.333-85.333-85.333h-597.333c-47.061 0-85.333 38.272-85.333 85.333v85.333h768zM896 277.333h-768v512c0 47.061 38.272 85.333 85.333 85.333h597.333c47.061 0 85.333-38.272 85.333-85.333z" />
<glyph unicode="&#xe92e;" glyph-name="cash-payment" d="M960 0h-704c-35.346 0-64 28.654-64 64v0 160c0 17.673 14.327 32 32 32s32-14.327 32-32v0-160h704v448h-32c-17.673 0-32 14.327-32 32s14.327 32 32 32v0h32c35.346 0 64-28.654 64-64v0-448c0-35.346-28.654-64-64-64v0zM864 0c-17.673 0-32 14.327-32 32v0c0 88.366 71.634 160 160 160v0c17.673 0 32-14.327 32-32s-14.327-32-32-32v0c-53.019 0-96-42.981-96-96v0c0-17.673-14.327-32-32-32v0zM352 0c-17.673 0-32 14.327-32 32v0c0 53.019-42.981 96-96 96v0c-17.673 0-32 14.327-32 32s14.327 32 32 32v0c88.366 0 160-71.634 160-160v0c0-17.673-14.327-32-32-32v0zM768 320h-704c-35.346 0-64 28.654-64 64v0 448c0 35.346 28.654 64 64 64v0h704c35.346 0 64-28.654 64-64v0-448c0-35.346-28.654-64-64-64v0zM768 384v0zM64 832v-448h704v448zM160 320c-17.673 0-32 14.327-32 32v0c0 53.019-42.981 96-96 96v0c-17.673 0-32 14.327-32 32s14.327 32 32 32v0c88.366 0 160-71.634 160-160v0c0-17.673-14.327-32-32-32v0zM32 704c-17.673 0-32 14.327-32 32s14.327 32 32 32v0c53.019 0 96 42.981 96 96v0c0 17.673 14.327 32 32 32s32-14.327 32-32v0c0-88.366-71.634-160-160-160v0zM672 320c-17.673 0-32 14.327-32 32v0c0 88.366 71.634 160 160 160v0c17.673 0 32-14.327 32-32s-14.327-32-32-32v0c-53.019 0-96-42.981-96-96v0c0-17.673-14.327-32-32-32v0zM800 704c-88.366 0-160 71.634-160 160v0c0 17.673 14.327 32 32 32s32-14.327 32-32v0c0-53.019 42.981-96 96-96v0c17.673 0 32-14.327 32-32s-14.327-32-32-32v0zM416 512c-53.019 0-96 42.981-96 96s42.981 96 96 96c53.019 0 96-42.981 96-96v0c0-53.019-42.981-96-96-96v0zM416 640c-17.673 0-32-14.327-32-32s14.327-32 32-32c17.673 0 32 14.327 32 32v0c0 17.673-14.327 32-32 32v0z" />
<glyph unicode="&#xe92f;" glyph-name="debit-card-back" d="M960 64h-896c-35.346 0-64 28.654-64 64v0 576c0 35.346 28.654 64 64 64v0h896c35.346 0 64-28.654 64-64v0-576c0-35.346-28.654-64-64-64v0zM960 128v0zM64 704v-576h896v576zM992 512h-960c-17.673 0-32 14.327-32 32s14.327 32 32 32v0h960c17.673 0 32-14.327 32-32s-14.327-32-32-32v0zM352 256h-192c-17.673 0-32 14.327-32 32s14.327 32 32 32v0h192c17.673 0 32-14.327 32-32s-14.327-32-32-32v0zM768 192c-70.692 0-128 57.308-128 128s57.308 128 128 128c70.692 0 128-57.308 128-128v0c0-70.692-57.308-128-128-128v0zM768 384c-35.346 0-64-28.654-64-64s28.654-64 64-64c35.346 0 64 28.654 64 64v0c0 35.346-28.654 64-64 64v0zM640 192c-70.692 0-128 57.308-128 128s57.308 128 128 128v0c0.071 0 0.155 0 0.239 0 33.031 0 63.089-12.728 85.537-33.546l-0.081 0.074c6.127-5.84 9.937-14.064 9.937-23.178 0-17.673-14.327-32-32-32-8.239 0-15.75 3.113-21.422 8.228l0.028-0.025c-11.027 10.195-25.829 16.448-42.091 16.448-0.052 0-0.105 0-0.157 0h0.008c-35.346 0-64-28.654-64-64s28.654-64 64-64v0c0.063 0 0.138 0 0.213 0 16.262 0 31.064 6.253 42.133 16.486l-0.041-0.038c5.729 5.461 13.504 8.822 22.063 8.822 17.673 0 32-14.327 32-32 0-9.435-4.083-17.916-10.578-23.772l-0.028-0.025c-22.368-20.745-52.426-33.472-85.457-33.472-0.107 0-0.213 0-0.32 0h0.017z" />
<glyph unicode="&#xe930;" glyph-name="delivery-parcel2" d="M960-64h-896c-35.346 0-64 28.654-64 64v0 736c0 17.673 14.327 32 32 32v0h960c17.673 0 32-14.327 32-32v0-736c0-35.346-28.654-64-64-64v0zM960 0v0zM64 704v-704h896v704zM992 704c-0.014 0-0.031 0-0.047 0-11.067 0-20.822 5.618-26.568 14.158l-0.072 0.114-118.464 177.728h-669.696l-118.528-177.728c-5.822-8.638-15.568-14.244-26.624-14.244-17.675 0-32.004 14.329-32.004 32.004 0 6.62 2.010 12.77 5.452 17.874l-0.072-0.114 128 192c5.824 8.617 15.558 14.208 26.598 14.208 0.009 0 0.018 0 0.028 0h703.999c11.061-0.006 20.808-5.622 26.551-14.158l0.073-0.114 128-192c3.358-4.983 5.359-11.122 5.359-17.728 0-17.667-14.317-31.991-31.983-32h-0.001zM416 704c-0.035 0-0.076 0-0.116 0-1.836 0-3.633 0.163-5.379 0.476l0.184-0.027c-15.265 2.616-26.735 15.75-26.735 31.564 0 1.849 0.157 3.662 0.458 5.425l-0.027-0.189 32 192c2.192 15.728 15.552 27.703 31.71 27.703 17.673 0 32-14.327 32-32 0-2.193-0.221-4.335-0.641-6.405l0.035 0.206-32-192c-2.604-15.246-15.701-26.712-31.484-26.752h-0.004zM608 704c-15.813 0.008-28.944 11.484-31.525 26.562l-0.027 0.19-32 192c-0.386 1.864-0.606 4.006-0.606 6.199 0 17.673 14.327 32 32 32 16.158 0 29.519-11.975 31.691-27.535l0.019-0.168 32-192c0.274-1.574 0.431-3.387 0.431-5.236 0-15.814-11.471-28.948-26.545-31.537l-0.19-0.027c-1.562-0.285-3.359-0.448-5.195-0.448-0.019 0-0.038 0-0.056 0h0.003zM608 512c-3.616 0.007-7.093 0.592-10.346 1.667l0.234-0.067-85.888 28.672-85.888-28.608c-3.001-1.012-6.457-1.595-10.050-1.595-7.056 0-13.587 2.252-18.911 6.078l0.097-0.066c-8.064 5.881-13.245 15.295-13.248 25.919v192.001c0 17.673 14.327 32 32 32s32-14.327 32-32v0-147.648l53.888 17.984c3.021 1.008 6.498 1.589 10.112 1.589s7.091-0.582 10.345-1.656l-0.233 0.067 53.888-17.984v147.648c0 17.673 14.327 32 32 32s32-14.327 32-32v0-192c0-17.673-14.327-32-32-32v0zM352 192h-192c-17.673 0-32 14.327-32 32s14.327 32 32 32v0h192c17.673 0 32-14.327 32-32s-14.327-32-32-32v0zM256 64h-96c-17.673 0-32 14.327-32 32s14.327 32 32 32v0h96c17.673 0 32-14.327 32-32s-14.327-32-32-32v0z" />
<glyph unicode="&#xe931;" glyph-name="discount-calculator" d="M864 640h-384c-17.673 0-32 14.327-32 32v0 128c0 17.673 14.327 32 32 32v0h384c17.673 0 32-14.327 32-32v0-128c0-17.673-14.327-32-32-32v0zM512 704h320v64h-320zM960 64h-160c-17.673 0-32 14.327-32 32s14.327 32 32 32v0h160v768h-576v-96c0-17.673-14.327-32-32-32s-32 14.327-32 32v0 96c0 35.346 28.654 64 64 64v0h576c35.346 0 64-28.654 64-64v0-768c0-35.346-28.654-64-64-64v0zM832 512h64v-64h-64v64zM832 320h64v-64h-64v64zM320 384c-53.019 0-96 42.981-96 96s42.981 96 96 96c53.019 0 96-42.981 96-96v0c0-53.019-42.981-96-96-96v0zM320 512c-17.673 0-32-14.327-32-32s14.327-32 32-32c17.673 0 32 14.327 32 32v0c0 17.673-14.327 32-32 32v0zM448 64c-53.019 0-96 42.981-96 96s42.981 96 96 96c53.019 0 96-42.981 96-96v0c0-53.019-42.981-96-96-96v0zM448 192c-17.673 0-32-14.327-32-32s14.327-32 32-32c17.673 0 32 14.327 32 32v0c0 17.673-14.327 32-32 32v0zM256 128c-17.654 0.026-31.954 14.343-31.954 32 0 7.582 2.637 14.547 7.043 20.030l-0.048-0.062 256 320c5.915 7.348 14.909 12.009 24.992 12.009 17.678 0 32.009-14.331 32.009-32.009 0-7.596-2.646-14.573-7.065-20.062l0.048 0.062-256-320c-5.914-7.323-14.892-11.968-24.954-11.968-0.024 0-0.049 0-0.073 0h0.004zM384-64c-212.077 0-384 171.923-384 384s171.923 384 384 384c212.077 0 384-171.923 384-384v0c-0.255-211.975-172.025-383.745-383.975-384h-0.025zM384 640c-176.731 0-320-143.269-320-320s143.269-320 320-320c176.731 0 320 143.269 320 320v0c-0.218 176.643-143.357 319.781-319.979 320h-0.021z" />
<glyph unicode="&#xe932;" glyph-name="discount-coupon" d="M864 64h-704c-17.673 0-32 14.327-32 32v0c0 53.019-42.981 96-96 96v0c-17.673 0-32 14.327-32 32v0 384c0 17.673 14.327 32 32 32v0c53.019 0 96 42.981 96 96v0c0 17.673 14.327 32 32 32v0h704c17.673 0 32-14.327 32-32v0c0-53.019 42.981-96 96-96v0c17.673 0 32-14.327 32-32v0-384c0-17.673-14.327-32-32-32v0c-53.019 0-96-42.981-96-96v0c0-17.673-14.327-32-32-32v0zM188.8 128h646.4c13.273 62.856 61.944 111.527 123.752 124.614l1.048 0.186v326.4c-62.856 13.273-111.527 61.944-124.614 123.752l-0.186 1.048h-646.4c-13.273-62.856-61.944-111.527-123.752-124.614l-1.048-0.186v-326.4c62.856-13.273 111.527-61.944 124.614-123.752l0.186-1.048zM640 736h64v-96h-64v96zM640 576h64v-128h-64v128zM640 384h64v-128h-64v128zM640 192h64v-96h-64v96zM288 448c-53.019 0-96 42.981-96 96s42.981 96 96 96c53.019 0 96-42.981 96-96v0c0-53.019-42.981-96-96-96v0zM288 576c-17.673 0-32-14.327-32-32s14.327-32 32-32c17.673 0 32 14.327 32 32v0c0 17.673-14.327 32-32 32v0zM480 192c-53.019 0-96 42.981-96 96s42.981 96 96 96c53.019 0 96-42.981 96-96v0c0-53.019-42.981-96-96-96v0zM480 320c-17.673 0-32-14.327-32-32s14.327-32 32-32c17.673 0 32 14.327 32 32v0c0 17.673-14.327 32-32 32v0zM224 192c-17.668 0.007-31.988 14.331-31.988 32 0 7.814 2.801 14.974 7.453 20.53l-0.041-0.050 320 384c5.917 7.064 14.742 11.524 24.608 11.524 17.693 0 32.036-14.343 32.036-32.036 0-7.827-2.807-14.998-7.469-20.562l0.041 0.050-320-384c-5.91-7.024-14.705-11.456-24.535-11.456-0.037 0-0.074 0-0.111 0h0.006z" />
<glyph unicode="&#xe933;" glyph-name="dollar-cash" d="M832 128h-768c-35.346 0-64 28.654-64 64v0 576c0 35.346 28.654 64 64 64v0h768c35.346 0 64-28.654 64-64v0-576c0-35.346-28.654-64-64-64v0zM832 192v0zM64 768v-576h768v576zM960 0h-768c-17.673 0-32 14.327-32 32s14.327 32 32 32v0h768v576c0 17.673 14.327 32 32 32s32-14.327 32-32v0-576c0-35.346-28.654-64-64-64v0zM448 320h-64c-17.673 0-32 14.327-32 32s14.327 32 32 32v0h64c17.673 0 32 14.327 32 32s-14.327 32-32 32v0c-53.019 0-96 42.981-96 96s42.981 96 96 96v0h64c17.673 0 32-14.327 32-32s-14.327-32-32-32v0h-64c-17.673 0-32-14.327-32-32s14.327-32 32-32v0c53.019 0 96-42.981 96-96s-42.981-96-96-96v0zM448 576c-17.673 0-32 14.327-32 32v0 64c0 17.673 14.327 32 32 32s32-14.327 32-32v0-64c0-17.673-14.327-32-32-32v0zM448 256c-17.673 0-32 14.327-32 32v0 64c0 17.673 14.327 32 32 32s32-14.327 32-32v0-64c0-17.673-14.327-32-32-32v0zM224 640h-64c-17.673 0-32 14.327-32 32s14.327 32 32 32v0h64c17.673 0 32-14.327 32-32s-14.327-32-32-32v0zM736 256h-64c-17.673 0-32 14.327-32 32s14.327 32 32 32v0h64c17.673 0 32-14.327 32-32s-14.327-32-32-32v0z" />
<glyph unicode="&#xe934;" glyph-name="dollar-coin-stack" d="M672 576c-170.624 0-352 56.064-352 160s181.376 160 352 160 352-56.064 352-160-181.376-160-352-160zM672 832c-175.808 0-288-56.896-288-96s112.192-96 288-96 288 56.896 288 96-112.192 96-288 96zM736 450.56c-0.391-0.017-0.851-0.027-1.312-0.027-17.688 0-32.027 14.339-32.027 32.027 0 17.227 13.601 31.276 30.65 31.998l0.065 0.002c147.904 12.224 226.624 62.144 226.624 93.44 0 17.673 14.327 32 32 32s32-14.327 32-32v0c0-92.224-143.296-145.408-285.312-157.312zM800 330.88c-17.589 0.11-31.806 14.395-31.806 31.999 0 15.659 11.247 28.691 26.104 31.458l0.198 0.031c107.52 19.008 165.504 58.304 165.504 85.632 0 17.673 14.327 32 32 32s32-14.327 32-32v0c0-68.928-81.664-124.48-218.432-148.608-1.619-0.326-3.48-0.513-5.385-0.513-0.064 0-0.129 0-0.193 0.001h0.010zM800 202.88c-17.589 0.11-31.806 14.395-31.806 31.999 0 15.659 11.247 28.691 26.104 31.458l0.198 0.031c107.52 19.008 165.504 58.304 165.504 85.632 0 17.673 14.327 32 32 32s32-14.327 32-32v0c0-68.928-81.664-124.48-218.432-148.608-1.619-0.326-3.48-0.513-5.385-0.513-0.064 0-0.129 0-0.193 0.001h0.010zM800 74.88c-17.589 0.11-31.806 14.395-31.806 31.999 0 15.659 11.247 28.691 26.104 31.458l0.198 0.031c107.52 19.008 165.504 58.304 165.504 85.632 0 17.673 14.327 32 32 32s32-14.327 32-32v0c0-68.928-81.664-124.48-218.432-148.608-1.619-0.326-3.48-0.513-5.385-0.513-0.064 0-0.129 0-0.193 0.001h0.010zM736-61.44c-0.391-0.017-0.851-0.027-1.312-0.027-17.688 0-32.027 14.339-32.027 32.027 0 17.227 13.601 31.276 30.65 31.998l0.065 0.002c147.904 12.224 226.624 62.144 226.624 93.44 0 17.673 14.327 32 32 32s32-14.327 32-32v0c0-92.224-143.296-145.408-285.312-157.312zM992 64c-17.673 0-32 14.327-32 32v0 640c0 17.673 14.327 32 32 32s32-14.327 32-32v0-640c0-17.673-14.327-32-32-32v0zM352 576c-17.673 0-32 14.327-32 32v0 128c0 17.673 14.327 32 32 32s32-14.327 32-32v0-128c0-17.673-14.327-32-32-32v0zM352 192c-170.624 0-352 56.064-352 160s181.376 160 352 160 352-56.064 352-160-181.376-160-352-160zM352 448c-175.808 0-288-56.896-288-96s112.192-96 288-96 288 56.896 288 96-112.192 96-288 96zM352 64c-170.624 0-352 56.064-352 160 0 17.673 14.327 32 32 32s32-14.327 32-32v0c0-39.104 112.192-96 288-96s288 56.896 288 96c0 17.673 14.327 32 32 32s32-14.327 32-32v0c0-103.936-181.376-160-352-160zM352-64c-170.624 0-352 56.064-352 160 0 17.673 14.327 32 32 32s32-14.327 32-32v0c0-39.104 112.192-96 288-96s288 56.896 288 96c0 17.673 14.327 32 32 32s32-14.327 32-32v0c0-103.936-181.376-160-352-160zM672 64c-17.673 0-32 14.327-32 32v0 256c0 17.673 14.327 32 32 32s32-14.327 32-32v0-256c0-17.673-14.327-32-32-32v0zM32 64c-17.673 0-32 14.327-32 32v0 256c0 17.673 14.327 32 32 32s32-14.327 32-32v0-256c0-17.673-14.327-32-32-32v0zM544-38.4c-17.673 0-32 14.327-32 32v0 256c0 17.673 14.327 32 32 32s32-14.327 32-32v0-256c0-17.673-14.327-32-32-32v0zM864-38.4c-17.673 0-32 14.327-32 32v0 640c0 17.673 14.327 32 32 32s32-14.327 32-32v0-640c0-17.673-14.327-32-32-32v0z" />
<glyph unicode="&#xe935;" glyph-name="dollar-money" d="M960 64h-896c-35.346 0-64 28.654-64 64v0 576c0 35.346 28.654 64 64 64v0h896c35.346 0 64-28.654 64-64v0-576c0-35.346-28.654-64-64-64v0zM960 128v0zM64 704v-576h896v576zM32 512c-17.673 0-32 14.327-32 32s14.327 32 32 32v0c88.366 0 160 71.634 160 160v0c0 17.673 14.327 32 32 32s32-14.327 32-32v0c0-123.712-100.288-224-224-224v0zM992 512c-123.712 0-224 100.288-224 224v0c0 17.673 14.327 32 32 32s32-14.327 32-32v0c0-88.366 71.634-160 160-160v0c17.673 0 32-14.327 32-32s-14.327-32-32-32v0zM224 64c-17.673 0-32 14.327-32 32v0c0 88.366-71.634 160-160 160v0c-17.673 0-32 14.327-32 32s14.327 32 32 32v0c123.712 0 224-100.288 224-224v0c0-17.673-14.327-32-32-32v0zM800 64c-17.673 0-32 14.327-32 32v0c0 123.712 100.288 224 224 224v0c17.673 0 32-14.327 32-32s-14.327-32-32-32v0c-88.366 0-160-71.634-160-160v0c0-17.673-14.327-32-32-32v0zM512 256h-64c-17.673 0-32 14.327-32 32s14.327 32 32 32v0h64c17.673 0 32 14.327 32 32s-14.327 32-32 32v0c-53.019 0-96 42.981-96 96s42.981 96 96 96v0h64c17.673 0 32-14.327 32-32s-14.327-32-32-32v0h-64c-17.673 0-32-14.327-32-32s14.327-32 32-32v0c53.019 0 96-42.981 96-96s-42.981-96-96-96v0zM512 512c-17.673 0-32 14.327-32 32v0 64c0 17.673 14.327 32 32 32s32-14.327 32-32v0-64c0-17.673-14.327-32-32-32v0zM512 192c-17.673 0-32 14.327-32 32v0 64c0 17.673 14.327 32 32 32s32-14.327 32-32v0-64c0-17.673-14.327-32-32-32v0z" />
<glyph unicode="&#xe936;" glyph-name="donation" d="M160 0h-128c-17.673 0-32 14.327-32 32v0 448c0 17.673 14.327 32 32 32v0h128c17.673 0 32-14.327 32-32v0-448c0-17.673-14.327-32-32-32v0zM64 64h64v384h-64zM618.24 64h-458.24v64h458.24c22.172 0.153 42.543 7.739 58.776 20.386l-0.216-0.162 270.4 210.176c6.936 5.147 11.683 12.907 12.784 21.796l0.016 0.156c0.154 1.152 0.242 2.484 0.242 3.837 0 7.216-2.503 13.846-6.689 19.071l0.047-0.060c-5.144 6.881-12.84 11.61-21.659 12.782l-0.165 0.018c-1.244 0.187-2.679 0.294-4.14 0.294-7.105 0-13.619-2.528-18.693-6.733l0.049 0.039-228.032-176.832c-32.081-25.396-73.126-40.746-117.755-40.768h-211.205v64h211.2c29.613 0.003 56.85 10.174 78.41 27.211l-0.266-0.203 228.032 176.832c15.745 12.473 35.895 20.009 57.806 20.009 4.328 0 8.587-0.294 12.759-0.863l-0.485 0.054c26.384-3.27 49.094-16.822 64.35-36.455l0.162-0.217c12.484-15.802 20.025-36.010 20.025-57.98 0-4.38-0.3-8.689-0.88-12.909l0.055 0.489c-3.237-26.388-16.827-49.095-36.514-64.283l-0.222-0.165-270.656-210.496c-26.733-20.582-60.682-32.996-97.53-33.024h-0.006zM352 192c-17.673 0-32 14.327-32 32s14.327 32 32 32v0c0.010 0 0.021 0 0.033 0 77.038 0 141.36 54.446 156.584 126.958l0.183 1.042h-348.8c-17.673 0-32 14.327-32 32s14.327 32 32 32v0h384c17.673 0 32-14.327 32-32v0c0-123.712-100.288-224-224-224v0zM928 512c-17.673 0-32 14.327-32 32v0 288h-704v-224c0-17.673-14.327-32-32-32s-32 14.327-32 32v0 224c0 35.346 28.654 64 64 64v0h704c35.346 0 64-28.654 64-64v0-288c0-17.673-14.327-32-32-32v0zM160 704c-17.673 0-32 14.327-32 32s14.327 32 32 32v0c53.019 0 96 42.981 96 96v0c0 17.673 14.327 32 32 32s32-14.327 32-32v0c0-88.366-71.634-160-160-160v0zM928 704c-88.366 0-160 71.634-160 160v0c0 17.673 14.327 32 32 32s32-14.327 32-32v0c0-53.019 42.981-96 96-96v0c17.673 0 32-14.327 32-32s-14.327-32-32-32v0zM544 512c-53.019 0-96 42.981-96 96s42.981 96 96 96c53.019 0 96-42.981 96-96v0c0-53.019-42.981-96-96-96v0zM544 640c-17.673 0-32-14.327-32-32s14.327-32 32-32c17.673 0 32 14.327 32 32v0c0 17.673-14.327 32-32 32v0z" />
<glyph unicode="&#xe937;" glyph-name="facebook" d="M608-64h-192c-17.673 0-32 14.327-32 32v0 416h-96c-17.673 0-32 14.327-32 32v0 160c0 17.673 14.327 32 32 32v0h96v128c0 123.712 100.288 224 224 224v0h128c17.673 0 32-14.327 32-32v0-160c0-17.673-14.327-32-32-32v0h-64c-17.673 0-32-14.327-32-32v0-96h160c17.67-0.004 31.993-14.329 31.993-32 0-4.288-0.844-8.38-2.374-12.117l0.077 0.213-64-160c-4.853-11.876-16.314-20.093-29.696-20.096h-96v-416c0-17.673-14.327-32-32-32v0zM448 0h128v416c0 17.673 14.327 32 32 32v0h106.368l38.4 96h-144.768c-17.673 0-32 14.327-32 32v0 128c0 53.019 42.981 96 96 96v0h32v96h-96c-88.366 0-160-71.634-160-160v0-160c0-17.673-14.327-32-32-32v0h-96v-96h96c17.673 0 32-14.327 32-32v0z" />
<glyph unicode="&#xe938;" glyph-name="free-sign" d="M160 64c-17.673 0-32 14.327-32 32v0 256c0 17.673 14.327 32 32 32v0h64c17.673 0 32-14.327 32-32s-14.327-32-32-32v0h-32v-224c0-17.673-14.327-32-32-32v0zM224 192h-64c-17.673 0-32 14.327-32 32s14.327 32 32 32v0h64c17.673 0 32-14.327 32-32s-14.327-32-32-32v0zM608 64c-17.673 0-32 14.327-32 32v0 256c0 17.673 14.327 32 32 32v0h64c17.673 0 32-14.327 32-32s-14.327-32-32-32v0h-32v-224c0-17.673-14.327-32-32-32v0zM672 192h-64c-17.673 0-32 14.327-32 32s14.327 32 32 32v0h64c17.673 0 32-14.327 32-32s-14.327-32-32-32v0zM672 64h-64c-17.673 0-32 14.327-32 32s14.327 32 32 32v0h64c17.673 0 32-14.327 32-32s-14.327-32-32-32v0zM800 64c-17.673 0-32 14.327-32 32v0 256c0 17.673 14.327 32 32 32v0h64c17.673 0 32-14.327 32-32s-14.327-32-32-32v0h-32v-224c0-17.673-14.327-32-32-32v0zM864 192h-64c-17.673 0-32 14.327-32 32s14.327 32 32 32v0h64c17.673 0 32-14.327 32-32s-14.327-32-32-32v0zM864 64h-64c-17.673 0-32 14.327-32 32s14.327 32 32 32v0h64c17.673 0 32-14.327 32-32s-14.327-32-32-32v0zM352 64c-17.673 0-32 14.327-32 32v0 256c0 17.673 14.327 32 32 32v0h64c53.019 0 96-42.981 96-96s-42.981-96-96-96v0h-32v-96c0-17.673-14.327-32-32-32v0zM384 256h32c17.673 0 32 14.327 32 32s-14.327 32-32 32v0h-32zM480 64c-10.433 0-19.7 4.993-25.542 12.72l-0.058 0.080-96 128c-3.996 5.281-6.4 11.96-6.4 19.2 0 17.673 14.327 32 32 32 10.433 0 19.7-4.993 25.542-12.72l0.058-0.080 96-128c3.996-5.281 6.4-11.96 6.4-19.2 0-17.673-14.327-32-32-32v0zM992-64h-960c-17.673 0-32 14.327-32 32v0 512c0 17.673 14.327 32 32 32v0h960c17.673 0 32-14.327 32-32v0-512c0-17.673-14.327-32-32-32v0zM64 0h896v448h-896zM512 768c-53.019 0-96 42.981-96 96s42.981 96 96 96c53.019 0 96-42.981 96-96v0c0-53.019-42.981-96-96-96v0zM512 896c-17.673 0-32-14.327-32-32s14.327-32 32-32c17.673 0 32 14.327 32 32v0c0 17.673-14.327 32-32 32v0zM864 448c-9.68 0.002-18.355 4.302-24.221 11.095l-0.035 0.041-298.88 348.16c-4.93 5.601-7.938 12.997-7.938 21.096 0 17.673 14.327 32 32 32 9.819 0 18.605-4.422 24.475-11.384l0.039-0.048 298.88-348.16c4.775-5.557 7.682-12.839 7.682-20.8 0-17.673-14.327-32-32-32-0.001 0-0.001 0-0.002 0v0zM160 448c-17.67 0.004-31.993 14.329-31.993 32 0 7.991 2.929 15.297 7.772 20.905l-0.035-0.041 298.88 348.16c5.909 7.010 14.695 11.432 24.514 11.432 17.673 0 32-14.327 32-32 0-8.099-3.009-15.495-7.969-21.131l0.031 0.035-298.88-348.16c-5.904-6.873-14.606-11.2-24.318-11.2-0.001 0-0.001 0-0.002 0v0z" />
<glyph unicode="&#xe939;" glyph-name="fresh-arrival" d="M352 288c-12.446 0-23.233 7.106-28.524 17.483l-0.084 0.181-67.392 134.784v-120.448c0-17.673-14.327-32-32-32s-32 14.327-32 32v0 256c0.001 17.672 14.328 31.998 32 31.998 12.446 0 23.232-7.105 28.524-17.481l0.084-0.181 67.392-134.784v120.448c0 17.673 14.327 32 32 32s32-14.327 32-32v0-256c0-0.008 0-0.017 0-0.026 0-15.062-10.406-27.693-24.421-31.097l-0.219-0.045c-2.21-0.525-4.749-0.828-7.357-0.832h-0.003zM544 288h-64c-17.673 0-32 14.327-32 32v0 256c0 17.673 14.327 32 32 32v0h64c17.673 0 32-14.327 32-32s-14.327-32-32-32v0h-32v-192h32c17.673 0 32-14.327 32-32s-14.327-32-32-32v0zM544 416h-64c-17.673 0-32 14.327-32 32s14.327 32 32 32v0h64c17.673 0 32-14.327 32-32s-14.327-32-32-32v0zM800 288c-12.446 0-23.233 7.106-28.524 17.483l-0.084 0.181-35.392 70.784-35.392-70.72c-5.376-10.557-16.162-17.662-28.608-17.662-17.65 0-31.962 14.289-32 31.93v256.004c0 17.673 14.327 32 32 32s32-14.327 32-32v0-120.448l3.392 6.72c5.924 9.81 16.528 16.268 28.64 16.268s22.716-6.458 28.556-16.119l0.084-0.149 3.328-6.72v120.448c0 17.673 14.327 32 32 32s32-14.327 32-32v0-256c0-0.008 0-0.017 0-0.026 0-15.062-10.406-27.693-24.421-31.097l-0.219-0.045c-2.21-0.525-4.749-0.828-7.357-0.832h-0.003zM960 64h-896c-35.346 0-64 28.654-64 64v0 640c0 35.346 28.654 64 64 64v0h896c35.346 0 64-28.654 64-64v0-640c0-35.346-28.654-64-64-64v0zM960 128v0zM64 768v-640h896v640z" />
<glyph unicode="&#xe93a;" glyph-name="archive-download" d="M311.168 435.499c-16.683-16.683-16.683-43.648 0-60.331l170.667-170.667c3.925-3.925 8.661-7.040 13.867-9.216 5.205-2.133 10.752-3.285 16.299-3.285s11.093 1.152 16.299 3.285c5.205 2.176 9.941 5.291 13.867 9.216l170.667 170.667c16.683 16.683 16.683 43.648 0 60.331s-43.648 16.683-60.331 0l-97.835-97.835v537.003c0 23.552-19.115 42.667-42.667 42.667s-42.667-19.115-42.667-42.667v-537.003l-97.835 97.835c-16.683 16.683-43.648 16.683-60.331 0zM896 917.333h-213.333c-23.552 0-42.667-19.115-42.667-42.667s19.115-42.667 42.667-42.667h213.333c23.509 0 42.667-19.157 42.667-42.667v-128h-256c-23.552 0-42.667-19.115-42.667-42.667s19.115-42.667 42.667-42.667h256v-469.333c0-23.509-19.157-42.667-42.667-42.667h-768c-23.509 0-42.667 19.157-42.667 42.667v469.333h256c23.552 0 42.667 19.115 42.667 42.667s-19.115 42.667-42.667 42.667h-256v128c0 23.509 19.157 42.667 42.667 42.667h213.333c23.552 0 42.667 19.115 42.667 42.667s-19.115 42.667-42.667 42.667h-213.333c-70.571 0-128-57.429-128-128v-682.667c0-70.571 57.429-128 128-128h768c70.571 0 128 57.429 128 128v682.667c0 70.571-57.429 128-128 128z" />
<glyph unicode="&#xe93b;" glyph-name="archive-upload" d="M682.667 192c10.923 0 21.845 4.181 30.165 12.501 16.683 16.683 16.683 43.648 0 60.331l-170.667 170.667c-3.925 3.925-8.661 7.040-13.867 9.216-10.453 4.309-22.187 4.309-32.597 0-5.205-2.176-9.941-5.291-13.867-9.216l-170.667-170.667c-16.683-16.683-16.683-43.648 0-60.331s43.648-16.683 60.331 0l97.835 97.835v-281.003c0-23.552 19.115-42.667 42.667-42.667s42.667 19.115 42.667 42.667v281.003l97.835-97.835c8.32-8.32 19.243-12.501 30.165-12.501zM896 917.333h-768c-70.571 0-128-57.429-128-128v-682.667c0-70.571 57.429-128 128-128h213.333c23.552 0 42.667 19.115 42.667 42.667s-19.115 42.667-42.667 42.667h-213.333c-23.509 0-42.667 19.157-42.667 42.667v469.333h853.333v-469.333c0-23.509-19.157-42.667-42.667-42.667h-213.333c-23.552 0-42.667-19.115-42.667-42.667s19.115-42.667 42.667-42.667h213.333c70.571 0 128 57.429 128 128v682.667c0 70.571-57.429 128-128 128zM938.667 661.333h-853.333v128c0 23.509 19.157 42.667 42.667 42.667h768c23.509 0 42.667-19.157 42.667-42.667z" />
<glyph unicode="&#xe93c;" glyph-name="archive" d="M384 405.333h256c23.552 0 42.667 19.115 42.667 42.667s-19.115 42.667-42.667 42.667h-256c-23.552 0-42.667-19.115-42.667-42.667s19.115-42.667 42.667-42.667zM896 917.333h-768c-70.571 0-128-57.429-128-128v-682.667c0-70.571 57.429-128 128-128h768c70.571 0 128 57.429 128 128v682.667c0 70.571-57.429 128-128 128zM938.667 106.667c0-23.509-19.157-42.667-42.667-42.667h-768c-23.509 0-42.667 19.157-42.667 42.667v469.333h853.333zM938.667 661.333h-853.333v128c0 23.509 19.157 42.667 42.667 42.667h768c23.509 0 42.667-19.157 42.667-42.667z" />
<glyph unicode="&#xe93d;" glyph-name="full-wallet" d="M928 576h-832c-21.387 0.268-41.097 7.233-57.186 18.888l0.29-0.2c-23.82 17.676-39.089 45.711-39.089 77.312 0 53.014 42.972 95.991 95.984 96h192.001c17.673 0 32-14.327 32-32s-14.327-32-32-32v0h-192c-17.673 0-32-14.327-32-32 0-10.433 4.993-19.7 12.72-25.542l0.080-0.058c5.349-3.836 11.98-6.204 19.153-6.399l0.047-0.001h832c17.673 0 32-14.327 32-32s-14.327-32-32-32v0zM864 576c-17.673 0-32 14.327-32 32v0 96h-96c-17.673 0-32 14.327-32 32s14.327 32 32 32v0h128c17.673 0 32-14.327 32-32v0-128c0-17.673-14.327-32-32-32v0zM928 0h-832c-53.019 0-96 42.981-96 96v0 576c0 17.673 14.327 32 32 32s32-14.327 32-32v0-576c0-17.673 14.327-32 32-32v0h800v160c0 17.673 14.327 32 32 32s32-14.327 32-32v0-192c0-17.673-14.327-32-32-32v0zM928 384c-17.673 0-32 14.327-32 32v0 192c0 17.673 14.327 32 32 32s32-14.327 32-32v0-192c0-17.673-14.327-32-32-32v0zM992 192h-224c-70.692 0-128 57.308-128 128s57.308 128 128 128v0h224c17.673 0 32-14.327 32-32v0-192c0-17.673-14.327-32-32-32v0zM768 384c-35.346 0-64-28.654-64-64s28.654-64 64-64v0h192v128zM800 576c-0.019 0-0.041 0-0.063 0-12.447 0-23.234 7.106-28.525 17.483l-0.084 0.181-113.664 227.392-73.792-36.864c-4.168-2.127-9.090-3.373-14.304-3.373-17.68 0-32.013 14.333-32.013 32.013 0 12.467 7.126 23.269 17.527 28.556l0.182 0.084 102.4 51.2c4.169 2.13 9.094 3.378 14.31 3.378 12.466 0 23.268-7.129 28.55-17.532l0.084-0.182 128-256c2.138-4.176 3.391-9.11 3.391-14.336 0-17.673-14.326-31.999-31.999-32v0zM672 576c-0.019 0-0.041 0-0.063 0-12.447 0-23.234 7.106-28.525 17.483l-0.084 0.181-113.664 227.392-483.328-241.664c-4.168-2.127-9.090-3.373-14.304-3.373-17.68 0-32.013 14.333-32.013 32.013 0 12.467 7.126 23.269 17.527 28.556l0.182 0.084 512 256c4.169 2.13 9.094 3.378 14.31 3.378 12.466 0 23.268-7.129 28.55-17.532l0.084-0.182 128-256c2.138-4.176 3.391-9.11 3.391-14.336 0-17.673-14.327-32-32-32-0.022 0-0.044 0-0.066 0h0.003z" />
<glyph unicode="&#xe93e;" glyph-name="arrow-diverge" d="M1011.456 179.541l-170.624 170.624c-16.683 16.683-43.648 16.683-60.331 0s-16.683-43.648 0-60.331l97.835-97.835h-304.043l-219.477 256 219.477 256h304.043l-97.835-97.835c-16.683-16.683-16.683-43.648 0-60.331 8.32-8.32 19.243-12.501 30.165-12.501s21.845 4.181 30.165 12.501l170.624 170.624c3.968 3.925 7.083 8.661 9.259 13.909 4.309 10.411 4.309 22.144 0 32.597-2.176 5.248-5.333 9.984-9.259 13.952l-170.624 170.624c-16.683 16.683-43.648 16.683-60.331 0s-16.683-43.648 0-60.331l97.835-97.877h-323.669c-12.459 0-24.277-5.461-32.384-14.933l-243.243-283.733h-236.373c-23.595 0-42.667-19.072-42.667-42.667s19.072-42.667 42.667-42.667h236.416l243.2-283.733c8.107-9.472 19.925-14.933 32.384-14.933h323.669l-97.835-97.835c-16.683-16.683-16.683-43.648 0-60.331 8.32-8.32 19.243-12.501 30.165-12.501s21.845 4.181 30.165 12.501l170.624 170.624c3.968 3.925 7.083 8.661 9.259 13.909 4.309 10.411 4.309 22.144 0 32.597-2.176 5.248-5.291 9.984-9.259 13.909z" />
<glyph unicode="&#xe93f;" glyph-name="arrow-down-left" d="M840.832 776.832c-16.683 16.683-43.648 16.683-60.331 0l-481.835-481.835v366.336c0 23.552-19.115 42.667-42.667 42.667s-42.667-19.115-42.667-42.667v-469.333c0-5.547 1.152-11.093 3.285-16.299 4.309-10.411 12.629-18.731 23.083-23.083 5.205-2.133 10.752-3.285 16.299-3.285h469.333c23.552 0 42.667 19.115 42.667 42.667s-19.115 42.667-42.667 42.667h-366.336l481.835 481.835c16.683 16.683 16.683 43.648 0 60.331z" />
<glyph unicode="&#xe940;" glyph-name="arrow-down-right" d="M768 704c-23.552 0-42.667-19.115-42.667-42.667v-366.336l-481.835 481.835c-16.683 16.683-43.648 16.683-60.331 0s-16.683-43.648 0-60.331l481.835-481.835h-366.336c-23.552 0-42.667-19.115-42.667-42.667s19.115-42.667 42.667-42.667h469.333c5.547 0 11.093 1.152 16.299 3.285 10.411 4.309 18.731 12.629 23.083 23.083 2.133 5.205 3.285 10.752 3.285 16.299v469.333c0 23.552-19.115 42.667-42.667 42.667z" />
<glyph unicode="&#xe941;" glyph-name="arrow-down" d="M838.784 437.419c-17.792 15.488-44.672 13.696-60.203-4.011l-223.915-255.872v654.464c0 23.552-19.115 42.667-42.667 42.667s-42.667-19.115-42.667-42.667v-654.464l-223.915 255.872c-15.531 17.749-42.496 19.541-60.203 4.011-17.749-15.531-19.541-42.453-4.011-60.203l298.667-341.333c0.299-0.341 0.768-0.469 1.067-0.811 2.859-3.072 6.357-5.333 10.027-7.424 1.365-0.811 2.432-2.005 3.883-2.603 5.291-2.347 11.051-3.712 17.152-3.712s11.861 1.365 17.109 3.712c1.451 0.64 2.517 1.835 3.883 2.603 3.669 2.133 7.168 4.352 10.027 7.424 0.299 0.341 0.768 0.469 1.067 0.811l298.667 341.333c15.531 17.749 13.739 44.715-3.968 60.203z" />
<glyph unicode="&#xe942;" glyph-name="arrow-expand" d="M396.501 392.832l-311.168-311.168v195.669c0 23.595-19.115 42.667-42.667 42.667s-42.667-19.072-42.667-42.667v-298.667c0-5.547 1.152-11.093 3.285-16.299 4.309-10.453 12.629-18.773 23.083-23.083 5.205-2.133 10.752-3.285 16.299-3.285h298.667c23.552 0 42.667 19.072 42.667 42.667s-19.115 42.667-42.667 42.667h-195.669l311.168 311.168c16.683 16.683 16.683 43.648 0 60.331s-43.648 16.683-60.331 0zM1020.715 933.632c-4.309 10.411-12.629 18.731-23.083 23.083-5.205 2.133-10.752 3.285-16.299 3.285h-298.667c-23.552 0-42.667-19.115-42.667-42.667s19.115-42.667 42.667-42.667h195.669l-311.168-311.168c-16.683-16.683-16.683-43.648 0-60.331 8.32-8.32 19.243-12.501 30.165-12.501s21.845 4.181 30.165 12.501l311.168 311.168v-195.669c0-23.552 19.115-42.667 42.667-42.667s42.667 19.115 42.667 42.667v298.667c0 5.547-1.152 11.093-3.285 16.299z" />
<glyph unicode="&#xe943;" glyph-name="arrow-left" d="M896 490.667h-654.464l255.872 223.915c17.749 15.531 19.541 42.453 4.011 60.203-15.531 17.707-42.453 19.541-60.203 4.011l-341.333-298.667c-0.341-0.299-0.469-0.768-0.811-1.067-3.072-2.859-5.333-6.357-7.424-10.027-0.811-1.365-2.005-2.432-2.603-3.883-2.347-5.291-3.712-11.051-3.712-17.152s1.365-11.861 3.712-17.109c0.64-1.451 1.835-2.517 2.603-3.883 2.133-3.669 4.352-7.168 7.424-10.027 0.341-0.299 0.469-0.768 0.811-1.067l341.333-298.667c8.107-7.083 18.133-10.581 28.117-10.581 11.861 0 23.68 4.949 32.128 14.549 15.531 17.749 13.739 44.672-4.011 60.203l-255.915 223.915h654.464c23.552 0 42.667 19.115 42.667 42.667s-19.115 42.667-42.667 42.667z" />
<glyph unicode="&#xe944;" glyph-name="arrow-merge" d="M1020.715 464.299c-2.176 5.248-5.333 9.984-9.259 13.952l-170.624 170.624c-16.683 16.683-43.648 16.683-60.331 0s-16.683-43.648 0-60.331l97.835-97.877h-304.085l-243.2 283.733c-8.107 9.472-19.925 14.933-32.384 14.933h-256c-23.595 0-42.667-19.072-42.667-42.667s19.072-42.667 42.667-42.667h236.373l219.477-256-219.477-256h-236.373c-23.595 0-42.667-19.072-42.667-42.667s19.072-42.667 42.667-42.667h256c12.459 0 24.277 5.461 32.384 14.933l243.243 283.733h304.043l-97.835-97.835c-16.683-16.683-16.683-43.648 0-60.331 8.32-8.32 19.243-12.501 30.165-12.501s21.845 4.181 30.165 12.501l170.624 170.624c3.968 3.925 7.083 8.661 9.259 13.909 4.309 10.411 4.309 22.187 0 32.597z" />
<glyph unicode="&#xe945;" glyph-name="arrow-right" d="M934.955 465.109c-0.597 1.408-1.792 2.475-2.56 3.797-2.133 3.712-4.437 7.253-7.552 10.155-0.341 0.299-0.427 0.768-0.768 1.067l-341.333 298.667c-17.707 15.488-44.672 13.739-60.203-4.011-15.488-17.749-13.696-44.672 4.053-60.203l255.872-223.915h-654.464c-23.595 0-42.667-19.115-42.667-42.667s19.072-42.667 42.667-42.667h654.464l-255.872-223.915c-17.749-15.531-19.541-42.453-4.053-60.203 8.448-9.6 20.267-14.549 32.128-14.549 9.984 0 20.011 3.499 28.075 10.581l341.333 298.667c0.341 0.299 0.469 0.768 0.768 1.067 3.115 2.901 5.419 6.443 7.552 10.155 0.768 1.323 1.92 2.389 2.56 3.797 2.347 5.205 3.712 10.965 3.712 17.067s-1.365 11.861-3.712 17.109z" />
<glyph unicode="&#xe946;" glyph-name="arrow-shrink" d="M442.965 402.048c-5.205 2.176-10.752 3.285-16.299 3.285h-298.667c-23.552 0-42.667-19.072-42.667-42.667s19.115-42.667 42.667-42.667h195.669l-311.168-311.168c-16.683-16.683-16.683-43.648 0-60.331 8.32-8.32 19.243-12.501 30.165-12.501s21.845 4.181 30.165 12.501l311.168 311.168v-195.669c0-23.595 19.115-42.667 42.667-42.667s42.667 19.072 42.667 42.667v298.667c0 5.547-1.152 11.093-3.285 16.299-4.309 10.453-12.629 18.773-23.083 23.083zM1011.499 947.499c-16.683 16.683-43.648 16.683-60.331 0l-311.168-311.168v195.669c0 23.552-19.115 42.667-42.667 42.667s-42.667-19.115-42.667-42.667v-298.667c0-5.547 1.152-11.093 3.285-16.299 4.309-10.411 12.629-18.731 23.083-23.083 5.205-2.133 10.752-3.285 16.299-3.285h298.667c23.552 0 42.667 19.115 42.667 42.667s-19.115 42.667-42.667 42.667h-195.669l311.168 311.168c16.683 16.683 16.683 43.648 0 60.331z" />
<glyph unicode="&#xe947;" glyph-name="arrow-swap" d="M525.867 679.595c5.504-2.389 11.221-3.456 16.853-3.456 16.555 0 32.299 9.685 39.211 25.813l295.893 1.493-97.323-97.323c-16.683-16.683-16.683-43.648 0-60.331 8.32-8.277 19.243-12.459 30.165-12.459s21.845 4.181 30.165 12.501l170.624 170.624c3.968 3.925 7.083 8.661 9.259 13.909 4.309 10.411 4.309 22.144 0 32.597-2.176 5.248-5.333 9.984-9.259 13.952l-170.624 170.624c-16.683 16.683-43.648 16.683-60.331 0s-16.683-43.648 0-60.331l97.835-97.877h-323.669c-17.024 0-32.512-10.155-39.211-25.813l-11.947-27.861c-9.301-21.717 0.725-46.763 22.357-56.064zM1011.456 179.541l-170.624 170.624c-16.683 16.683-43.648 16.683-60.331 0s-16.683-43.648 0-60.331l97.835-97.835h-295.552l-244.907 571.477c-6.699 15.701-22.144 25.856-39.211 25.856h-256c-23.595 0-42.667-19.072-42.667-42.667s19.072-42.667 42.667-42.667h227.883l244.907-571.477c6.699-15.701 22.144-25.856 39.211-25.856h323.669l-97.835-97.835c-16.683-16.683-16.683-43.648 0-60.331 8.32-8.32 19.243-12.501 30.165-12.501s21.845 4.181 30.165 12.501l170.624 170.624c3.968 3.925 7.083 8.661 9.259 13.909 4.309 10.411 4.309 22.144 0 32.597-2.176 5.248-5.291 9.984-9.259 13.909zM327.467 216.405c-21.675 9.344-46.805-0.725-56.021-22.357l-228.779-2.048c-23.595 0-42.667-19.072-42.667-42.667s19.072-42.667 42.667-42.667h256c17.024 0 32.512 10.155 39.211 25.813l11.947 27.861c9.301 21.717-0.725 46.763-22.357 56.064z" />
<glyph unicode="&#xe948;" glyph-name="arrow-up-left" d="M840.832 179.499l-481.835 481.835h366.336c23.595 0 42.667 19.115 42.667 42.667s-19.072 42.667-42.667 42.667h-469.333c-5.547 0-11.093-1.152-16.299-3.285-10.453-4.309-18.773-12.629-23.083-23.083-2.133-5.205-3.285-10.752-3.285-16.299v-469.333c0-23.552 19.072-42.667 42.667-42.667s42.667 19.115 42.667 42.667v366.336l481.835-481.835c8.32-8.32 19.243-12.501 30.165-12.501s21.845 4.181 30.165 12.501c16.683 16.683 16.683 43.648 0 60.331z" />
<glyph unicode="&#xe949;" glyph-name="arrow-up-right" d="M807.381 720.299c-4.309 10.411-12.629 18.731-23.083 23.083-5.205 2.133-10.752 3.285-16.299 3.285h-469.333c-23.552 0-42.667-19.115-42.667-42.667s19.115-42.667 42.667-42.667h366.336l-481.835-481.835c-16.683-16.683-16.683-43.648 0-60.331 8.32-8.32 19.243-12.501 30.165-12.501s21.845 4.181 30.165 12.501l481.835 481.835v-366.336c0-23.552 19.115-42.667 42.667-42.667s42.667 19.115 42.667 42.667v469.333c0 5.547-1.152 11.093-3.285 16.299z" />
<glyph unicode="&#xe94a;" glyph-name="arrow-up" d="M842.752 518.784l-298.667 341.333c-0.299 0.341-0.725 0.427-1.024 0.725-7.808 8.405-18.688 13.824-31.061 13.824s-23.253-5.419-31.061-13.824c-0.299-0.341-0.768-0.427-1.024-0.725l-298.667-341.333c-15.531-17.749-13.739-44.672 4.011-60.203 17.792-15.531 44.715-13.739 60.203 4.011l223.872 255.872v-654.464c0-23.552 19.115-42.667 42.667-42.667s42.667 19.115 42.667 42.667v654.464l223.915-255.872c8.405-9.643 20.224-14.592 32.085-14.592 9.941 0 19.968 3.499 28.075 10.581 17.749 15.488 19.541 42.453 4.011 60.203z" />
<glyph unicode="&#xe94b;" glyph-name="art-palette" d="M234.667 426.667c-35.285 0-64-28.715-64-64s28.715-64 64-64 64 28.715 64 64-28.715 64-64 64zM234.667 341.333c-11.776 0-21.333 9.557-21.333 21.333s9.557 21.333 21.333 21.333 21.333-9.557 21.333-21.333-9.557-21.333-21.333-21.333zM853.333 618.667h-128c-23.509 0-42.667 19.157-42.667 42.667v128c0 94.123-76.544 170.667-170.667 170.667-145.408 0-284.459-62.165-381.483-170.539-96.981-108.288-143.36-253.952-127.275-399.616 25.984-235.179 215.509-424.704 450.645-450.645 18.987-2.091 37.973-3.115 56.875-3.115 126.123 0 248.533 46.080 342.699 130.432 108.373 97.024 170.539 236.075 170.539 381.483 0 94.123-76.544 170.667-170.667 170.667zM796.544 130.048c-91.563-82.005-209.707-119.723-333.312-106.027-195.797 21.589-353.621 179.413-375.211 375.211-13.611 123.392 24.021 241.749 106.027 333.312 80.896 90.325 196.779 142.123 317.952 142.123 47.061 0 85.333-38.272 85.333-85.333v-128c0-70.571 57.429-128 128-128h128c47.061 0 85.333-38.272 85.333-85.333 0-121.173-51.797-237.056-142.123-317.952zM320 704c-35.285 0-64-28.715-64-64s28.715-64 64-64 64 28.715 64 64-28.715 64-64 64zM320 618.667c-11.776 0-21.333 9.557-21.333 21.333s9.557 21.333 21.333 21.333 21.333-9.557 21.333-21.333-9.557-21.333-21.333-21.333zM704 320c-35.285 0-64-28.715-64-64s28.715-64 64-64 64 28.715 64 64-28.715 64-64 64zM704 234.667c-11.776 0-21.333 9.557-21.333 21.333s9.557 21.333 21.333 21.333 21.333-9.557 21.333-21.333-9.557-21.333-21.333-21.333zM448 234.667c-35.285 0-64-28.715-64-64s28.715-64 64-64 64 28.715 64 64-28.715 64-64 64zM448 149.333c-11.776 0-21.333 9.557-21.333 21.333s9.557 21.333 21.333 21.333 21.333-9.557 21.333-21.333-9.557-21.333-21.333-21.333z" />
<glyph unicode="&#xe94c;" glyph-name="gift-card" d="M960 64h-896c-35.346 0-64 28.654-64 64v0 576c0 35.346 28.654 64 64 64v0h896c35.346 0 64-28.654 64-64v0-576c0-35.346-28.654-64-64-64v0zM960 128v0zM64 704v-576h896v576zM960 384h-896c-17.673 0-32 14.327-32 32s14.327 32 32 32v0h896c17.673 0 32-14.327 32-32s-14.327-32-32-32v0zM608 96c-17.673 0-32 14.327-32 32v0 576c0 17.673 14.327 32 32 32s32-14.327 32-32v0-576c0-17.673-14.327-32-32-32v0zM608 384c-2.99 0.017-5.874 0.436-8.612 1.207l0.228-0.055c-95.097 21.065-179.078 52.397-257.034 93.602l5.514-2.658c-17.378 17.378-28.127 41.386-28.127 67.904 0 53.036 42.994 96.031 96.031 96.031 26.518 0 50.526-10.749 67.904-28.127v0c25.6-25.6 136.256-160 148.864-175.552 4.547-5.486 7.306-12.597 7.306-20.352 0-17.673-14.327-32-32-32-0.026 0-0.052 0-0.078 0h0.004zM416 576c-17.67-0.004-31.993-14.329-31.993-32 0-8.819 3.567-16.805 9.338-22.593l-0.001 0.001c34.867-17.227 75.92-32.782 118.588-44.422l4.932-1.146c-33.408 40-67.2 79.808-78.272 90.816-5.786 5.772-13.772 9.342-22.592 9.344v0zM608 384c-17.655 0.024-31.957 14.342-31.957 32 0 7.726 2.738 14.813 7.297 20.343l-0.044-0.055c12.8 15.296 123.456 150.208 148.864 175.552 17.246 16.673 40.769 26.948 66.692 26.948 53.019 0 96-42.981 96-96 0-25.923-10.275-49.446-26.974-66.719l0.026 0.027c-72.442-38.547-156.423-69.879-244.763-89.672l-6.757-1.272c-2.51-0.716-5.394-1.135-8.374-1.152h-0.010zM800 576c-0.017 0-0.037 0-0.057 0-8.822 0-16.811-3.57-22.599-9.345l0.001 0.001c-11.008-11.008-44.8-50.816-78.208-90.752 47.755 12.789 89.043 28.565 128.199 47.992l-3.975-1.784c5.362 5.708 8.657 13.413 8.657 21.888 0 17.673-14.327 32-32 32-0.006 0-0.012 0-0.017 0h0.001zM448 224c-0.017 0-0.037 0-0.057 0-17.673 0-32 14.327-32 32 0 8.851 3.593 16.862 9.401 22.655l160.001 160.001c5.749 5.558 13.59 8.983 22.231 8.983 17.673 0 32-14.327 32-32 0-8.641-3.425-16.482-8.991-22.24l-159.991-159.991c-5.778-5.796-13.764-9.388-22.588-9.408h-0.004zM768 224c-0.017 0-0.037 0-0.057 0-8.822 0-16.811 3.57-22.599 9.345l-159.999 159.999c-5.558 5.749-8.983 13.59-8.983 22.231 0 17.673 14.327 32 32 32 8.641 0 16.482-3.425 22.24-8.991l159.991-159.991c5.77-5.787 9.337-13.773 9.337-22.592 0-17.648-14.287-31.96-31.925-32h-0.004zM352 192h-192c-17.673 0-32 14.327-32 32s14.327 32 32 32v0h192c17.673 0 32-14.327 32-32s-14.327-32-32-32v0z" />
<glyph unicode="&#xe94d;" glyph-name="gift-sharing" d="M160-64h-128c-17.673 0-32 14.327-32 32v0 448c0 17.673 14.327 32 32 32v0h128c17.673 0 32-14.327 32-32v0-448c0-17.673-14.327-32-32-32v0zM64 0h64v384h-64zM618.24 0h-458.24v64h458.24c22.171 0.158 42.541 7.743 58.777 20.387l-0.217-0.163 270.4 210.176c6.922 5.133 11.666 12.867 12.784 21.73l0.016 0.158c0.151 1.146 0.238 2.472 0.238 3.817 0 7.242-2.501 13.9-6.686 19.157l0.048-0.063c-5.12 6.908-12.828 11.648-21.664 12.783l-0.16 0.017c-1.084 0.134-2.34 0.211-3.613 0.211-7.263 0-13.944-2.489-19.237-6.661l0.066 0.050-228.032-176.832c-32.091-25.374-73.129-40.72-117.749-40.768h-211.211v64h211.2c29.619 0.039 56.85 10.228 78.41 27.275l-0.266-0.203 228.032 176.832c15.752 12.471 35.908 20.006 57.824 20.006 4.322 0 8.575-0.293 12.741-0.86l-0.485 0.054c26.375-3.254 49.084-16.783 64.351-36.393l0.161-0.215c12.479-15.823 20.016-36.049 20.016-58.035 0-4.36-0.296-8.651-0.87-12.853l0.055 0.489c-3.38-26.209-16.938-48.732-36.514-63.835l-0.222-0.165-270.656-210.496c-26.68-20.779-60.615-33.389-97.488-33.6h-0.048zM352 128c-17.673 0-32 14.327-32 32s14.327 32 32 32v0c77.006 0.113 141.277 54.501 156.614 126.953l0.186 1.047h-348.8c-17.673 0-32 14.327-32 32s14.327 32 32 32v0h384c17.673 0 32-14.327 32-32v0c0-123.712-100.288-224-224-224v0zM768 576h-512c-35.346 0-64 28.654-64 64v0 64c0 35.346 28.654 64 64 64v0h512c35.346 0 64-28.654 64-64v0-64c0-35.346-28.654-64-64-64v0zM768 640v0zM256 704v-64h512v64zM736 384c-17.673 0-32 14.327-32 32v0 192c0 17.673 14.327 32 32 32s32-14.327 32-32v0-192c0-17.673-14.327-32-32-32v0zM288 448c-17.673 0-32 14.327-32 32v0 128c0 17.673 14.327 32 32 32s32-14.327 32-32v0-128c0-17.673-14.327-32-32-32v0zM512 448c-17.673 0-32 14.327-32 32v0 256c0 17.673 14.327 32 32 32s32-14.327 32-32v0-256c0-17.673-14.327-32-32-32v0zM512 704c-17.668 0.007-31.987 14.331-31.987 32 0 2.45 0.275 4.835 0.796 7.127l-0.041-0.215c10.042 59.17 30.817 112.014 60.369 158.756l-1.041-1.764c17.246 16.673 40.769 26.948 66.692 26.948 53.019 0 96-42.981 96-96 0-25.923-10.275-49.446-26.974-66.719l0.026 0.027c-44.958-28.525-97.777-49.32-154.383-59.031l-2.545-0.361c-2.073-0.478-4.457-0.757-6.904-0.768h-0.008zM608 864c-0.017 0-0.037 0-0.057 0-8.822 0-16.811-3.57-22.599-9.345l0.001 0.001c-12.498-21.407-22.498-46.199-28.69-72.461l-0.366-1.843c28.105 6.558 52.897 16.558 75.603 29.753l-1.299-0.697c5.77 5.787 9.337 13.773 9.337 22.592 0 17.648-14.287 31.96-31.925 32h-0.004zM512 704c-2.455 0.011-4.839 0.29-7.131 0.81l0.219-0.042c-59.151 10.072-111.97 30.867-158.688 60.432l1.76-1.040c-16.673 17.246-26.948 40.769-26.948 66.692 0 53.019 42.981 96 96 96 25.923 0 49.446-10.275 66.719-26.974l-0.027 0.026c28.525-44.958 49.32-97.777 59.031-154.383l0.361-2.545c0.489-2.096 0.77-4.503 0.77-6.976 0-17.673-14.327-32-32-32-0.023 0-0.046 0-0.069 0h0.004zM416 864c-0.017 0-0.037 0-0.057 0-17.673 0-32-14.327-32-32 0-8.851 3.593-16.862 9.401-22.655l0.001-0.001c21.407-12.498 46.199-22.498 72.461-28.69l1.843-0.366c-6.558 28.105-16.558 52.897-29.753 75.603l0.697-1.299c-5.778 5.796-13.764 9.388-22.588 9.408h-0.004z" />
<glyph unicode="&#xe94e;" glyph-name="gold-badge" d="M512 192c-212.077 0-384 171.923-384 384s171.923 384 384 384c212.077 0 384-171.923 384-384v0c-0.255-211.975-172.025-383.745-383.975-384h-0.025zM512 896c-176.731 0-320-143.269-320-320s143.269-320 320-320c176.731 0 320 143.269 320 320v0c-0.218 176.643-143.357 319.781-319.979 320h-0.021zM544 384c-17.673 0-32 14.327-32 32v0 288h-32c-17.673 0-32 14.327-32 32s14.327 32 32 32v0h64c17.673 0 32-14.327 32-32v0-320c0-17.673-14.327-32-32-32v0zM714.88-64c-11.782 0-22.076 6.368-27.63 15.849l-0.082 0.151-150.4 260.48c-2.762 4.633-4.394 10.218-4.394 16.184 0 17.673 14.327 32 32 32 11.857 0 22.207-6.448 27.736-16.029l0.082-0.155 117.056-202.688 50.048 128.576c4.778 12.038 16.324 20.394 29.821 20.394 1.695 0 3.359-0.132 4.983-0.386l-0.18 0.023 137.216-20.736-133.248 230.976c-2.762 4.633-4.394 10.218-4.394 16.184 0 17.673 14.327 32 32 32 11.857 0 22.207-6.448 27.736-16.029l0.082-0.155 166.4-288.64c2.687-4.584 4.273-10.095 4.273-15.976 0-17.673-14.327-32-32-32-1.689 0-3.347 0.131-4.965 0.383l0.18-0.023-177.536 26.88-64.96-166.848c-4.484-11.283-14.892-19.31-27.281-20.281l-0.111-0.007zM309.12-64h-2.432c-12.5 0.978-22.908 9.005-27.316 20.072l-0.076 0.216-64.96 166.976-177.536-26.88c-1.438-0.229-3.096-0.36-4.785-0.36-17.673 0-32 14.327-32 32 0 5.881 1.587 11.392 4.355 16.127l-0.082-0.151 166.4 288.64c5.611 9.736 15.962 16.184 27.818 16.184 17.673 0 32-14.327 32-32 0-5.966-1.633-11.55-4.475-16.331l0.081 0.147-133.184-231.040 137.472 20.736c1.443 0.231 3.108 0.362 4.803 0.362 13.497 0 25.043-8.357 29.745-20.178l0.076-0.216 50.048-128.576 116.736 202.752c5.611 9.736 15.962 16.184 27.818 16.184 17.673 0 32-14.327 32-32 0-5.966-1.633-11.55-4.475-16.331l0.081 0.147-150.4-260.48c-5.636-9.632-15.93-16-27.712-16v0z" />
<glyph unicode="&#xe94f;" glyph-name="instagram" d="M736-64h-448c-159.058 0-288 128.942-288 288v0 448c0 159.058 128.942 288 288 288v0h448c159.058 0 288-128.942 288-288v0-448c0-159.058-128.942-288-288-288v0zM288 896c-123.712 0-224-100.288-224-224v0-448c0-123.712 100.288-224 224-224v0h448c123.712 0 224 100.288 224 224v0 448c0 123.712-100.288 224-224 224v0zM512 192c-141.385 0-256 114.615-256 256s114.615 256 256 256c141.385 0 256-114.615 256-256v0c0-141.385-114.615-256-256-256v0zM512 640c-106.039 0-192-85.961-192-192s85.961-192 192-192c106.039 0 192 85.961 192 192v0c0 106.039-85.961 192-192 192v0zM800 672c-35.346 0-64 28.654-64 64s28.654 64 64 64c35.346 0 64-28.654 64-64v0c0-35.346-28.654-64-64-64v0zM800 736v0z" />
<glyph unicode="&#xe950;" glyph-name="at" d="M512 874.667c-235.264 0-426.667-191.403-426.667-426.667s191.403-426.667 426.667-426.667c23.552 0 42.667 19.072 42.667 42.667s-19.115 42.667-42.667 42.667c-188.203 0-341.333 153.131-341.333 341.333s153.131 341.333 341.333 341.333 341.333-153.131 341.333-341.333c0-47.061-38.272-85.333-85.333-85.333s-85.333 38.272-85.333 85.333c0 94.123-76.544 170.667-170.667 170.667s-170.667-76.544-170.667-170.667 76.544-170.667 170.667-170.667c51.2 0 96.683 23.125 128 58.965 31.317-35.84 76.8-58.965 128-58.965 94.123 0 170.667 76.544 170.667 170.667 0 235.264-191.403 426.667-426.667 426.667zM512 362.667c-47.061 0-85.333 38.272-85.333 85.333s38.272 85.333 85.333 85.333 85.333-38.272 85.333-85.333-38.272-85.333-85.333-85.333z" />
<glyph unicode="&#xe951;" glyph-name="atm" d="M320 405.333h23.509c9.899-48.64 52.992-85.333 104.491-85.333 58.795 0 106.667 47.872 106.667 106.667v42.667c0 11.776 9.557 21.333 21.333 21.333s21.333-9.557 21.333-21.333v-85.333c0-23.552 19.115-42.667 42.667-42.667s42.667 19.115 42.667 42.667v21.333h21.333c23.552 0 42.667 19.115 42.667 42.667s-19.115 42.667-42.667 42.667h-23.509c-9.899 48.64-52.992 85.333-104.491 85.333-58.795 0-106.667-47.872-106.667-106.667v-42.667c0-11.776-9.557-21.333-21.333-21.333s-21.333 9.557-21.333 21.333v106.667c0 23.552-19.115 42.667-42.667 42.667s-42.667-19.115-42.667-42.667v-42.667h-21.333c-23.552 0-42.667-19.115-42.667-42.667s19.115-42.667 42.667-42.667zM981.333 917.333h-938.667c-23.552 0-42.667-19.115-42.667-42.667v-170.667c0-23.552 19.115-42.667 42.667-42.667s42.667 19.115 42.667 42.667v128h42.667v-725.333c0-70.571 57.429-128 128-128h512c70.571 0 128 57.429 128 128v725.333h42.667v-128c0-23.552 19.115-42.667 42.667-42.667s42.667 19.115 42.667 42.667v170.667c0 23.552-19.115 42.667-42.667 42.667zM810.667 106.667c0-23.509-19.157-42.667-42.667-42.667h-512c-23.509 0-42.667 19.157-42.667 42.667v725.333h597.333z" />
<glyph unicode="&#xe952;" glyph-name="packed-box" d="M480-64c-0.046 0-0.1 0-0.154 0-4.567 0-8.914 0.942-12.857 2.641l0.211-0.081-448 192c-11.397 5.065-19.2 16.285-19.2 29.329 0 0.039 0 0.078 0 0.117v-0.006 576c0 0.033 0 0.072 0 0.111 0 13.043 7.804 24.264 18.997 29.248l0.204 0.081 448 192c3.703 1.622 8.018 2.565 12.554 2.565 4.116 0 8.050-0.777 11.664-2.192l-0.218 0.075 512-192c12.226-4.662 20.761-16.273 20.8-29.883v-576.005c0-13.626-8.517-25.263-20.517-29.878l-0.219-0.074-512-192c-3.345-1.297-7.217-2.048-11.264-2.048v0zM64 181.12l416.768-178.624 479.232 179.712v531.584l-479.232 179.648-416.768-178.56zM288 146.56c-0.103-0.001-0.224-0.002-0.346-0.002-4.501 0-8.782 0.943-12.657 2.641l0.203-0.079-128 54.4c-11.455 5.072-19.302 16.34-19.302 29.44 0 17.73 14.373 32.102 32.102 32.102 4.629 0 9.029-0.98 13.005-2.743l-0.205 0.081 128-54.4c11.538-5.006 19.461-16.298 19.461-29.441 0-17.673-14.327-32-32-32-0.092 0-0.184 0-0.275 0.001h0.014zM480 512c-0.046 0-0.1 0-0.154 0-4.567 0-8.914 0.942-12.857 2.641l0.211-0.081-448 192c-11.455 5.072-19.302 16.34-19.302 29.44 0 17.73 14.373 32.102 32.102 32.102 4.629 0 9.029-0.98 13.005-2.743l-0.205 0.081 435.968-186.944 499.968 187.456c3.345 1.297 7.217 2.048 11.264 2.048 17.673 0 32-14.327 32-32 0-13.626-8.517-25.263-20.517-29.878l-0.219-0.074-512-192c-3.345-1.297-7.217-2.048-11.264-2.048v0zM480-64c-17.673 0-32 14.327-32 32v0 576c0 17.673 14.327 32 32 32s32-14.327 32-32v0-576c0-17.673-14.327-32-32-32v0zM672 359.68c-17.673 0-32 14.327-32 32v0 202.56l-172.16 71.36c-11.742 4.916-19.841 16.312-19.841 29.6s8.099 24.684 19.63 29.521l0.211 0.079 125.504 53.312c4.215 2.235 9.214 3.548 14.52 3.548 4.687 0 9.135-1.024 13.132-2.86l-0.196 0.081 192-86.016c11.353-5.045 19.139-16.198 19.2-29.176v-224.008c0-13.626-8.517-25.263-20.517-29.878l-0.219-0.074-128-48c-3.345-1.297-7.217-2.048-11.264-2.048v0zM562.688 695.36l121.6-50.112c11.673-4.947 19.712-16.308 19.712-29.547 0-0.008 0-0.015 0-0.023v0.001-177.792l64 24v181.056l-160 71.68z" />
<glyph unicode="&#xe953;" glyph-name="paper-plane" d="M864 128c-4.854 0.018-9.451 1.101-13.575 3.027l0.199-0.083-832 384c-11.054 5.2-18.569 16.245-18.569 29.045 0 13.388 8.222 24.856 19.891 29.63l0.214 0.077 960 384c3.519 1.449 7.605 2.29 11.887 2.29 17.673 0 32-14.327 32-32 0-1.848-0.157-3.66-0.458-5.423l0.027 0.189-128-768c-1.709-10.049-7.901-18.371-16.406-22.956l-0.17-0.084c-4.361-2.334-9.54-3.707-15.038-3.712h-0.002zM112.896 541.888l726.464-335.232 111.744 670.464zM416 0c-17.673 0-32 14.327-32 32v0 334.72c0.001 8.979 3.7 17.095 9.657 22.906l0.007 0.006 576 561.216c5.774 5.641 13.681 9.121 22.4 9.121 17.709 0 32.065-14.356 32.065-32.065 0-8.99-3.7-17.116-9.659-22.938l-566.47-551.686v-207.872l100.736 164.288c5.727 9.228 15.805 15.282 27.296 15.282 17.683 0 32.018-14.335 32.018-32.018 0-6.192-1.758-11.973-4.801-16.872l0.079 0.136-160-260.928c-5.721-9.236-15.8-15.296-27.294-15.296-0.012 0-0.024 0-0.036 0h0.002z" />
<glyph unicode="&#xe954;" glyph-name="paypal" d="M323.776 64h-203.328c-17.056 0.016-32.33 7.629-42.625 19.636l-0.063 0.076c-8.402 9.944-13.51 22.908-13.51 37.065 0 3.183 0.258 6.305 0.755 9.347l-0.045-0.332 118.656 768c5.316 35.261 35.313 62.011 71.595 62.208h284.885c9.471 1.039 20.454 1.631 31.575 1.631 81.359 0 155.312-31.707 210.177-83.437l-0.152 0.142c32.311-38.1 51.957-87.828 51.957-142.144 0-17.936-2.142-35.373-6.185-52.066l0.308 1.506-3.136-18.496c-36.864-193.024-158.528-290.944-361.728-290.944h-83.584c-4.463-0.208-8.060-3.65-8.509-8.026l-0.003-0.038zM129.216 128h139.584l40 258.88h0.512c8.664 31.007 36.663 53.374 69.888 53.376h83.648c170.432 0 268.224 78.208 298.88 238.976l2.752 16.128c3.274 12.026 5.155 25.834 5.155 40.082 0 38.583-13.794 73.943-36.72 101.419l0.205-0.253c-43.555 37.974-100.894 61.128-163.641 61.128-10.355 0-20.563-0.631-30.587-1.855l1.204 0.12h-284.864c-4.521-0.168-8.188-3.614-8.7-8.022l-0.004-0.042zM435.52 249.638l1.286 8.996 63.356-9.060-1.286-8.996-63.356 9.060zM451.776-64h-203.456c-16.745 0.077-31.749 7.466-41.993 19.137l-0.055 0.063c-9.116 10.224-14.686 23.782-14.686 38.64 0 2.442 0.15 4.848 0.442 7.211l-0.028-0.283 15.488 100.16 63.232-9.792-13.824-91.136h139.904l38.4 250.048c5.452 35.445 35.735 62.272 72.283 62.272 0.013 0 0.026 0 0.039 0h83.198c170.752 0 268.8 78.144 298.816 238.912 1.344 6.4 3.072 16.576 3.072 16.576 3.206 11.936 5.048 25.641 5.048 39.775 0 38.479-13.649 73.77-36.368 101.296l0.217-0.27c-20.033 21.203-45.728 36.857-74.667 44.549l-1.109 0.251 18.368 61.312c42.085-11.474 77.97-33.821 105.652-63.847l0.14-0.153c32.175-38.286 51.723-88.119 51.723-142.518 0-17.845-2.104-35.198-6.076-51.826l0.305 1.512c0-0.448-2.176-13.184-3.648-19.2-36.16-192-157.824-289.984-361.472-289.984h-83.2c-4.581-0.264-8.261-3.79-8.764-8.278l-0.004-0.042z" />
</font>
</defs>
</svg>
